<?xml version="1.0" standalone="no"?>
<!DOCTYPE svg PUBLIC "-//W3C//DTD SVG 1.1//EN" "http://www.w3.org/Graphics/SVG/1.1/DTD/svg11.dtd" >
<svg xmlns="http://www.w3.org/2000/svg" xmlns:xlink="http://www.w3.org/1999/xlink" version="1.1">
<metadata>
Created by FontForge 20201107 at Mon May 17 20:35:35 1993
 By 
Times New Roman Cyrillic (c) The Monotype Cprporation plc. Data (c) The Monotype Corporation plc/Type Solutions Inc 1990 - 1992. All Rights Reserved.
</metadata>
<defs>
<font id="TimesNRCyrMT" horiz-adv-x="1024" >
  <font-face 
    font-family="Times New Roman Cyr"
    font-weight="400"
    font-stretch="normal"
    units-per-em="2048"
    panose-1="2 2 6 3 5 4 5 2 3 4"
    ascent="1638"
    descent="-410"
    x-height="950"
    cap-height="1406"
    bbox="-149 -456 2225 1820"
    underline-thickness="102"
    underline-position="-256"
    unicode-range="U+0020-2122"
  />
<missing-glyph horiz-adv-x="1536" 
d="M256 0v1280h1024v-1280h-1024zM288 32h960v1216h-960v-1216z" />
    <glyph glyph-name=".notdef" horiz-adv-x="1536" 
d="M256 0v1280h1024v-1280h-1024zM288 32h960v1216h-960v-1216z" />
    <glyph glyph-name="glyph1" horiz-adv-x="0" 
 />
    <glyph glyph-name="glyph2" horiz-adv-x="512" 
 />
    <glyph glyph-name="space" unicode=" " horiz-adv-x="512" 
 />
    <glyph glyph-name="exclam" unicode="!" horiz-adv-x="555" 
d="M265 370l-86 818q-8 78 -8 101q0 57 30.5 103t84.5 46t85.5 -42t31.5 -108q0 -31 -10 -108l-92 -810h-36zM282 198q46 0 79 -33t33 -80t-33 -80t-79 -33q-47 0 -80 33t-33 80t33 80t80 33z" />
    <glyph glyph-name="quotedbl" unicode="&#x22;" horiz-adv-x="831" 
d="M209 854l-55 295q-22 122 -22 166q0 123 97 123q44 0 73.5 -29.5t29.5 -77.5q0 -41 -26 -182l-54 -295h-43zM575 854l-54 292q-24 128 -24 170q0 122 102 122q49 0 74.5 -32.5t25.5 -73.5q0 -88 -19 -186l-57 -292h-48z" />
    <glyph glyph-name="numbersign" unicode="#" horiz-adv-x="1366" 
d="M89 1016h322l85 407h124l-84 -407h421l86 407h121l-84 -407h197v-120h-222l-77 -370h299v-122h-324l-84 -404h-124l85 404h-422l-83 -404h-124l85 404h-197v122h221l76 370h-297v120zM511 896l-78 -370h422l76 370h-420z" />
    <glyph glyph-name="dollar" unicode="$" 
d="M470 1493h63v-64q167 -10 336 -87v-310h-38q-2 149 -88 234t-210 96v-526q11 -7 130 -83t170.5 -134.5t75.5 -121t24 -134.5q0 -137 -99 -249.5t-301 -127.5v-130h-63v130q-189 5 -364 80v294h39q18 -146 115 -227.5t210 -86.5v615q-364 196 -364 435q0 128 94 223
t270 110v64zM470 876v487q-93 -10 -151.5 -70.5t-58.5 -139.5q0 -140 210 -277zM533 622v-574q112 16 182 88t70 168q0 85 -51 154t-201 164z" />
    <glyph glyph-name="percent" unicode="%" horiz-adv-x="1685" 
d="M1286 1436h89l-979 -1493h-88zM42 1071q0 155 78 256.5t187 101.5q111 0 190 -100.5t79 -260.5q0 -164 -79 -265t-184 -101q-115 0 -193 103.5t-78 265.5zM161 1069q0 -167 37.5 -250.5t112.5 -83.5q74 0 110.5 81t36.5 243q0 171 -37.5 256t-113.5 85
q-73 0 -109.5 -82.5t-36.5 -248.5zM1110 357q0 165 82 261t183 96q111 0 190 -100.5t79 -259.5q0 -176 -84 -271t-179 -95q-103 0 -187 95.5t-84 273.5zM1228 354q0 -166 37.5 -249.5t112.5 -83.5q74 0 111 81t37 243q0 170 -37.5 255t-113.5 85q-73 0 -110 -82.5
t-37 -248.5z" />
    <glyph glyph-name="ampersand" unicode="&#x26;" horiz-adv-x="1579" 
d="M1473 913v-37q-69 -3 -124 -41t-147 -222q-75 -149 -179 -287q167 -193 322 -193q63 0 109.5 43.5t57.5 101.5l33 -23q-31 -150 -120 -218t-185 -68t-180 50.5t-180 150.5q-207 -201 -462 -201q-148 0 -249.5 91t-101.5 230q0 136 94 256t324 245q-78 157 -78 309
q0 147 101 242.5t238 95.5q118 0 196 -70t78 -171q0 -228 -315 -372q84 -176 268 -437q163 196 163 371q0 107 -95 117v37h432zM672 889q227 111 227 296q0 87 -42 135.5t-111 48.5q-75 0 -112.5 -48.5t-37.5 -145.5q0 -147 76 -286zM827 226q-144 168 -312 492
q-235 -116 -235 -342q0 -109 77 -193t182 -84q156 0 288 127z" />
    <glyph glyph-name="quotesingle" unicode="'" horiz-adv-x="363" 
d="M158 853l-54 296q-23 124 -23 160q0 129 97 129q48 0 76 -31t28 -74q0 -41 -26 -184l-54 -296h-44z" />
    <glyph glyph-name="parenleft" unicode="(" horiz-adv-x="682" 
d="M650 1469v-35q-364 -208 -364 -912q0 -715 364 -916v-38q-558 314 -558 952q0 338 157 582.5t401 366.5z" />
    <glyph glyph-name="parenright" unicode=")" horiz-adv-x="682" 
d="M32 -432v38q364 207 364 909q0 364 -89 586.5t-275 328.5v39q558 -314 558 -952q0 -314 -149.5 -568t-408.5 -381z" />
    <glyph glyph-name="asterisk" unicode="*" 
d="M500 1087q-1 55 -34 153q-33 97 -33 143q0 36 24 65t57 29q36 0 59 -29t23 -64q0 -48 -20 -111q-42 -135 -43 -186q53 35 121 111q86 97 152 97q27 0 50.5 -22.5t23.5 -52.5q0 -84 -177 -122q-111 -25 -152 -43q25 -19 120 -40q120 -27 163.5 -55t43.5 -75
q0 -31 -21.5 -52t-48.5 -21q-68 0 -161 102q-75 83 -114 106q0 -55 32 -152q29 -91 29 -132t-22.5 -71t-56.5 -30q-35 0 -58.5 30t-23.5 68q0 46 34 143q29 86 33 144q-43 -22 -132 -120q-81 -88 -144 -88q-32 0 -55 21.5t-23 49.5q0 50 44.5 77.5t189.5 60.5q64 14 93 34
q-38 21 -129 40q-137 30 -167.5 62t-30.5 65q0 31 23.5 52t52.5 21q61 0 135 -77q107 -112 143 -131z" />
    <glyph glyph-name="plus" unicode="+" horiz-adv-x="1366" 
d="M140 767h478v479h129v-479h480v-129h-480v-476h-129v476h-478v129z" />
    <glyph glyph-name="comma" unicode="," horiz-adv-x="555" 
d="M128 -303q224 88 224 262q0 21 -7.5 31t-23.5 10q-8 0 -27 -10q-33 -18 -56 -18q-45 0 -77 32.5t-32 77.5q0 51 38 86.5t92 35.5q76 0 121 -61t45 -146q0 -236 -297 -339v39z" />
    <glyph glyph-name="hyphen" unicode="-" horiz-adv-x="682" 
d="M87 557h508v-161h-508v161z" />
    <glyph glyph-name="hyphen" unicode="&#xad;" horiz-adv-x="682" 
d="M87 557h508v-161h-508v161z" />
    <glyph glyph-name="period" unicode="." horiz-adv-x="555" 
d="M277 199q46 0 80 -32t34 -81q0 -47 -33.5 -80.5t-80.5 -33.5q-46 0 -79.5 33.5t-33.5 80.5q0 49 34 81t79 32z" />
    <glyph glyph-name="slash" unicode="/" horiz-adv-x="575" 
d="M439 1469h136l-439 -1500h-136z" />
    <glyph glyph-name="zero" unicode="0" 
d="M66 713q0 332 138 524t298 192q197 0 325.5 -205.5t128.5 -517.5q0 -356 -141.5 -543t-290.5 -187q-117 0 -225.5 88t-170.5 249t-62 400zM264 715q0 -337 63.5 -505.5t189.5 -168.5q111 0 176.5 154.5t65.5 497.5q0 339 -63 508t-190 169q-121 0 -181.5 -163.5
t-60.5 -491.5z" />
    <glyph glyph-name="one" unicode="1" 
d="M237 1264l332 165h38v-1224q0 -96 36.5 -132t135.5 -36v-37h-523v37q106 0 141 36t35 132v852q0 128 -14 167t-60 39q-45 0 -102 -32z" />
    <glyph glyph-name="two" unicode="2" 
d="M99 1046q77 383 399 383q168 0 277 -114t109 -255q0 -124 -58.5 -246.5t-229.5 -314.5t-343 -348h409q142 0 192 28.5t78 82.5h39l-100 -262h-813v37q266 234 415.5 416t195.5 289.5t46 222.5q0 143 -93.5 223t-199.5 80q-191 0 -284 -222h-39z" />
    <glyph glyph-name="three" unicode="3" 
d="M140 1129q108 300 364 300q135 0 227 -81t92 -203q0 -155 -183 -315q125 -50 187.5 -143t62.5 -229q0 -218 -159.5 -350t-397.5 -132q-215 0 -215 108q0 30 24 52.5t53 22.5q40 0 93 -26q149 -74 212 -74q101 0 172.5 79.5t71.5 206.5q0 143 -98 246.5t-275 103.5h-29v37
q159 27 239 118t80 202q0 102 -68.5 166.5t-173.5 64.5q-159 0 -245 -170z" />
    <glyph glyph-name="four" unicode="4" 
d="M683 1429h107v-920h189v-154h-189v-355h-172v355h-572v163zM618 1205l-488 -696h488v696z" />
    <glyph glyph-name="five" unicode="5" 
d="M434 1406h490l-76 -157h-414l-94 -203q285 -53 422.5 -203t137.5 -344q0 -219 -169.5 -371t-380.5 -152q-88 0 -156 39.5t-68 96.5q0 31 21.5 51t47.5 20q45 0 108 -41q95 -61 172 -61q108 0 202 96t94 228q0 189 -162.5 326.5t-433.5 142.5z" />
    <glyph glyph-name="six" unicode="6" 
d="M927 1429v-40q-200 0 -372 -172.5t-241 -440.5q68 54 141 80.5t150 26.5q145 0 248 -111t103 -294q0 -206 -121.5 -354t-298.5 -148q-189 0 -314.5 170.5t-125.5 414.5q0 365 252 624q242 250 579 244zM301 710q-15 -95 -15 -168q0 -200 72.5 -351.5t198.5 -151.5
q93 0 157 83.5t64 239.5q0 186 -67.5 308t-193.5 122q-49 0 -103 -20.5t-113 -61.5z" />
    <glyph glyph-name="seven" unicode="7" 
d="M214 1406h731l-452 -1430h-118l414 1270h-414q-152 0 -253 -171l-35 14z" />
    <glyph glyph-name="eight" unicode="8" 
d="M394 716q-162 123 -210 211.5t-48 172.5q0 138 104 233.5t261 95.5q158 0 265 -92.5t107 -207.5q0 -177 -283 -347q171 -132 241.5 -228.5t70.5 -218.5q0 -150 -111.5 -254.5t-277.5 -104.5t-280 102.5t-114 246.5q0 99 58.5 183t216.5 208zM539 824q194 141 194 306
q0 119 -61.5 182t-169.5 63q-93 0 -157 -61.5t-64 -153.5q0 -127 186 -278zM440 679q-170 -144 -170 -336q0 -127 69.5 -216.5t187.5 -89.5q103 0 170.5 66.5t67.5 160.5q0 91 -65.5 171t-174.5 172z" />
    <glyph glyph-name="nine" unicode="9" 
d="M95 19q223 0 394 187.5t225 419.5q-72 -52 -143 -78t-142 -26q-152 0 -253 115t-101 305q0 201 121.5 344t296.5 143q193 0 316.5 -167t123.5 -416q0 -230 -108 -425.5t-291.5 -320t-385.5 -124.5q-31 0 -53 5v38zM729 698q11 86 11 160q0 226 -69.5 367.5t-195.5 141.5
q-96 0 -160 -78.5t-64 -223.5q0 -190 65 -321.5t202 -131.5q49 0 102 21.5t109 64.5z" />
    <glyph glyph-name="colon" unicode=":" horiz-adv-x="555" 
d="M278 972q48 0 80.5 -32.5t32.5 -78.5q0 -45 -32.5 -78t-78.5 -33q-47 0 -80 33t-33 79q0 44 31.5 77t79.5 33zM279 199q46 0 80 -32t34 -81q0 -47 -33.5 -80.5t-80.5 -33.5q-46 0 -79.5 33.5t-33.5 80.5q0 49 34 81t79 32z" />
    <glyph glyph-name="semicolon" unicode=";" horiz-adv-x="555" 
d="M277 972q48 0 81 -32.5t33 -78.5t-33 -78.5t-79 -32.5q-47 0 -79.5 32.5t-32.5 79.5q0 45 31.5 77.5t78.5 32.5zM128 -303q224 88 224 262q0 21 -7.5 31t-23.5 10q-8 0 -27 -10q-33 -18 -56 -18q-45 0 -77 32.5t-32 77.5q0 51 38 86.5t92 35.5q76 0 121 -61t45 -146
q0 -236 -297 -339v39z" />
    <glyph glyph-name="less" unicode="&#x3c;" horiz-adv-x="1366" 
d="M1226 187l-1085 458v116l1085 456v-139l-912 -375l912 -376v-140z" />
    <glyph glyph-name="equal" unicode="=" horiz-adv-x="1366" 
d="M141 1001h1085v-129h-1085v129zM141 533h1085v-129h-1085v129z" />
    <glyph glyph-name="greater" unicode="&#x3e;" horiz-adv-x="1366" 
d="M141 1217l1085 -457v-116l-1085 -457v140l912 374l-912 376v140z" />
    <glyph glyph-name="question" unicode="?" horiz-adv-x="789" 
d="M410 334h-38q-2 39 -2 59q0 151 78 320q76 166 93 222.5t17 144.5q0 136 -63.5 215.5t-154.5 79.5q-60 0 -111.5 -42.5t-51.5 -94.5q0 -21 31 -79q33 -63 33 -92q0 -32 -23.5 -58t-51.5 -26q-48 0 -84 47t-36 105q0 136 109.5 219.5t243.5 83.5q147 0 247 -95t100 -226
q0 -97 -36 -179t-144 -213q-94 -113 -125 -187.5t-31 -189.5v-14zM399 198q46 0 79 -33t33 -80q0 -46 -33 -79.5t-79 -33.5q-47 0 -80 33.5t-33 79.5q0 48 33.5 80.5t79.5 32.5z" />
    <glyph glyph-name="at" unicode="@" horiz-adv-x="1878" 
d="M1408 973l-117 -399q-93 -318 -93 -381q0 -27 20 -51t54 -24q85 0 187.5 82t170 240.5t67.5 330.5q0 266 -180.5 440.5t-467.5 174.5q-378 0 -618 -288.5t-240 -664.5q0 -354 220.5 -576.5t562.5 -222.5q292 0 496.5 155.5t307.5 397.5h58q-84 -272 -326 -442.5
t-541 -170.5q-373 0 -622.5 251.5t-249.5 634.5q0 415 278.5 696.5t665.5 281.5q331 0 523.5 -194t192.5 -492q0 -279 -157.5 -492.5t-394.5 -213.5q-76 0 -114.5 34t-38.5 102q0 57 18 148q-230 -285 -394 -285q-84 0 -132.5 72.5t-48.5 159.5q0 143 87 312.5t222.5 279.5
t241.5 110q70 0 113 -34.5t59 -103.5l33 110zM1058 932q-131 0 -268 -236.5t-137 -388.5q0 -53 32 -97t83 -44q96 0 209 122t159 268.5t46 232.5q0 58 -33 100.5t-91 42.5z" />
    <glyph glyph-name="A" unicode="A" horiz-adv-x="1579" 
d="M795 1469l556 -1282q37 -86 73.5 -118t123.5 -32v-37h-577v37q148 0 148 99q0 31 -28 95l-106 243h-567l-126 -287q-11 -27 -11 -56q0 -94 151 -94v-37h-406v37q60 7 99.5 44.5t90.5 154.5l541 1233h38zM702 1123l-250 -573h500z" />
    <glyph glyph-name="B" unicode="B" horiz-adv-x="1366" 
d="M961 722q153 -29 235.5 -125.5t82.5 -218.5t-74 -214t-183.5 -128t-288.5 -36h-645v37q91 0 136 24t56.5 59.5t11.5 152.5v861q0 121 -13.5 156.5t-57 56t-133.5 22.5v37h564q305 0 434.5 -110.5t129.5 -264.5q0 -107 -68.5 -194t-186.5 -115zM514 1327v-549
q113 -22 175 -22q110 0 200.5 76.5t90.5 206.5q0 135 -98.5 218t-238.5 83q-60 0 -129 -13zM514 682v-583q83 -27 170 -27q160 0 248 87t88 215q0 149 -114 232t-297 83q-43 0 -95 -7z" />
    <glyph glyph-name="C" unicode="C" horiz-adv-x="1473" 
d="M1360 1439l33 -476h-33q-39 206 -182 304t-308 98q-229 0 -377.5 -168t-148.5 -517q0 -307 163 -464.5t394 -157.5q170 0 300 86t192 191l31 -20q-205 -346 -597 -346q-311 0 -527.5 208t-216.5 507q0 315 222.5 534.5t544.5 219.5q175 0 339 -76q36 -16 57 -16
q50 0 77 93h37z" />
    <glyph glyph-name="D" unicode="D" horiz-adv-x="1685" 
d="M66 1369v37h644q229 0 354 -23.5t252.5 -112t207.5 -241.5t80 -325q0 -168 -77.5 -315t-213.5 -238t-273 -121t-322 -30h-652v37q93 0 138 23.5t57 59.5t12 153v861q0 120 -13 155.5t-57 57t-137 22.5zM495 1297v-1195q94 -30 221 -30q285 0 456.5 169.5t171.5 450.5
q0 290 -176 465t-443 175q-123 0 -230 -35z" />
    <glyph glyph-name="E" unicode="E" horiz-adv-x="1366" 
d="M1189 1406l18 -310h-36q-13 92 -54 146t-86.5 68.5t-127.5 14.5h-405v-543h362q184 0 184 205h37v-495h-37q0 127 -48 168t-145 41h-353v-509q0 -69 23.5 -90t90.5 -21h291q143 0 219.5 57t158.5 213h39l-113 -351h-1133v37q90 0 134.5 24.5t56 60t11.5 151.5v861
q0 121 -13.5 156.5t-56.5 56t-132 22.5v37h1115z" />
    <glyph glyph-name="F" unicode="F" horiz-adv-x="1366" 
d="M1283 1406l14 -303h-38q-13 89 -52 140.5t-104 73t-202 21.5h-392v-553h318q129 0 177.5 33t48.5 164h37v-481h-37q-2 117 -47 158t-179 41h-318v-427q0 -117 11.5 -152.5t55 -58.5t132.5 -25v-37h-620v37q86 2 129.5 25t55.5 58t12 153v861q0 120 -13 155.5t-54.5 56
t-129.5 23.5v37h1195z" />
    <glyph glyph-name="G" unicode="G" horiz-adv-x="1685" 
d="M1433 1438l37 -448h-37q-48 176 -200 274t-321 98q-238 0 -402 -175t-164 -484q0 -292 177.5 -474.5t422.5 -182.5q80 0 157.5 26t153.5 77v330q0 121 -11 155.5t-52.5 57.5t-130.5 27v36h603v-36q-84 -4 -123.5 -29t-51 -66.5t-11.5 -144.5v-362q-189 -100 -307.5 -124
t-248.5 -24q-266 0 -445 94t-285 251.5t-106 344.5q0 219 122.5 415.5t316.5 280t370 83.5q188 0 360 -77q43 -20 71 -20q55 0 67 97h38z" />
    <glyph glyph-name="H" unicode="H" horiz-adv-x="1685" 
d="M496 679v-406q0 -118 12 -153.5t57 -59t138 -23.5v-37h-631v37q90 0 134.5 24t56 59.5t11.5 152.5v861q0 121 -13.5 156.5t-56.5 56t-132 22.5v37h631v-37q-91 -2 -135 -22t-58 -56t-14 -157v-369h692v369q0 121 -13.5 156.5t-57.5 56.5t-139 22v37h636v-37
q-89 -2 -132.5 -21.5t-57.5 -56t-14 -157.5v-861q0 -117 12 -152.5t56.5 -59.5t135.5 -24v-37h-636v37q94 1 139 22.5t58 58t13 155.5v406h-692z" />
    <glyph glyph-name="I" unicode="I" horiz-adv-x="789" 
d="M71 1369v37h647v-37q-95 -1 -139 -21t-58.5 -56.5t-14.5 -157.5v-861q0 -119 12.5 -155t58 -58.5t141.5 -22.5v-37h-647v37q94 1 139.5 21.5t59.5 57t14 157.5v861q0 122 -14.5 158.5t-59 56t-139.5 20.5z" />
    <glyph glyph-name="J" unicode="J" horiz-adv-x="897" 
d="M214 1369v37h629v-37q-87 -3 -130 -23t-56 -56t-13 -156v-635q0 -167 -33 -277t-122.5 -181.5t-222.5 -71.5q-99 0 -165.5 42.5t-66.5 111.5q0 44 30 74t74 30q73 0 120 -96q45 -89 91 -89q43 0 58 48t15 220v824q0 121 -13.5 156.5t-57 56.5t-137.5 22z" />
    <glyph glyph-name="K" unicode="K" horiz-adv-x="1685" 
d="M1452 1406v-37q-71 0 -144 -37t-234 -208q-188 -199 -350 -335l526 -521q134 -132 216 -181.5t180 -49.5h29v-37h-726v37q124 0 124 72q0 36 -66 101l-492 487v-424q0 -118 12 -153t55 -58t132 -25v-37h-633v37q94 1 139 22t58.5 57.5t13.5 156.5v861q0 121 -14 157
t-58 56.5t-139 21.5v37h643v-37q-93 -1 -137 -21.5t-58 -57t-14 -156.5v-411q125 97 336 299.5t211 282.5q0 61 -124 64v37h514z" />
    <glyph glyph-name="L" unicode="L" horiz-adv-x="1366" 
d="M1329 376l-119 -376h-1123v37q94 0 140.5 24t58.5 59.5t12 152.5v861q0 120 -13.5 155.5t-58.5 56.5t-139 23v37h632v-37q-90 -2 -133 -22.5t-56 -56.5t-13 -156v-960q0 -47 17.5 -64t90.5 -17h263q163 0 247 61.5t158 233.5z" />
    <glyph glyph-name="M" unicode="M" horiz-adv-x="2027" 
d="M1512 1406h426v-37q-91 -2 -135 -22.5t-57 -56.5t-13 -155v-862q0 -117 11.5 -152.5t56 -59.5t137.5 -24v-37h-633v37q92 0 137.5 23.5t57.5 59t12 153.5v907l-545 -1180h-35l-547 1180v-907q0 -118 11.5 -153t55 -58t130.5 -25v-37h-494v37q92 0 137 24t56.5 59.5
t11.5 152.5v853q0 92 -16 135t-61.5 71t-127.5 37v37h431l499 -1074z" />
    <glyph glyph-name="N" unicode="N" horiz-adv-x="1685" 
d="M1656 1406v-37h-55q-108 0 -137 -33.5t-29 -164.5v-1187h-28l-1007 1132v-836q0 -118 19 -160.5t60 -61t126 -21.5v-37h-508v37q98 2 142 24t57.5 64.5t13.5 209.5v871q-93 163 -286 163v37h408l912 -1038v791q0 129 -25.5 169.5t-125.5 40.5h-54v37h517z" />
    <glyph glyph-name="O" unicode="O" horiz-adv-x="1579" 
d="M1503 706q0 -169 -78 -339t-252 -284t-379 -114q-287 0 -503 212t-216 523q0 300 208.5 517t504.5 217q294 0 504.5 -213.5t210.5 -518.5zM1250 699q0 288 -119.5 473t-344.5 185q-223 0 -340.5 -181.5t-117.5 -468.5q0 -303 127.5 -481t335.5 -178q205 0 332 175.5
t127 475.5z" />
    <glyph glyph-name="P" unicode="P" horiz-adv-x="1237" 
d="M472 673v-400q0 -119 12.5 -155t57.5 -58.5t140 -22.5v-37h-632v37q88 1 132 24t56 58.5t12 153.5v861q0 121 -13.5 156.5t-56 56t-130.5 22.5v37h599q271 0 410 -118.5t139 -276.5q0 -154 -125.5 -269t-329.5 -115q-122 0 -271 46zM472 1302v-559q103 -40 173 -40
q136 0 217.5 84t81.5 218q0 149 -94.5 236.5t-227.5 87.5q-71 0 -150 -27z" />
    <glyph glyph-name="Q" unicode="Q" horiz-adv-x="1579" 
d="M975 -10q208 -339 517 -355v-37l-43 -1q-145 0 -394 98.5t-467 304.5q-219 70 -364 264.5t-145 438.5q0 301 209.5 518t504.5 217q286 0 500 -209t214 -523q0 -254 -148.5 -450t-383.5 -266zM1255 700q0 297 -124.5 477t-340.5 180q-223 0 -340 -181.5t-117 -468.5
q0 -302 126.5 -480.5t335.5 -178.5q219 0 339.5 184.5t120.5 467.5z" />
    <glyph glyph-name="R" unicode="R" horiz-adv-x="1579" 
d="M856 680l318 -393q111 -138 181.5 -189.5t162.5 -60.5v-37h-367l-532 660q-15 -2 -34 -2q-71 0 -99 2v-387q0 -117 11.5 -152.5t54.5 -58.5t131 -25v-37h-614v37q84 3 126.5 24.5t55.5 57t13 154.5v861q0 114 -10 147.5t-50 58.5t-110 28l-25 1v37h645q263 0 381 -110.5
t118 -255.5q0 -267 -357 -360zM486 1298v-569q474 0 474 304q0 120 -87.5 211t-228.5 91q-75 0 -158 -37z" />
    <glyph glyph-name="S" unicode="S" horiz-adv-x="1131" 
d="M943 1436v-465h-38q-21 162 -126 273t-249 111q-104 0 -174.5 -60.5t-70.5 -145.5q0 -63 44 -119q43 -57 229 -166q120 -70 222 -136t174 -158.5t72 -212.5q0 -175 -134.5 -281.5t-298.5 -106.5q-109 0 -296 62q-38 12 -65 12q-54 0 -83 -74h-38v474h38
q43 -204 155 -298.5t249 -94.5q119 0 195 62.5t76 160.5q0 83 -66 165q-67 81 -282 203q-218 123 -295 212q-77 88 -77 221q0 153 115 258.5t283 105.5q96 0 253 -60q40 -16 70 -16q53 0 80 74h38z" />
    <glyph glyph-name="T" unicode="T" horiz-adv-x="1366" 
d="M62 1406h1238l20 -318h-40q-18 139 -91 184t-208 45h-189v-1044q0 -117 11.5 -152.5t56 -59.5t138.5 -24v-37h-631v37q90 0 135 24.5t56 60t11 151.5v1044h-182q-112 0 -162 -15t-92.5 -72.5t-48.5 -141.5h-37z" />
    <glyph glyph-name="U" unicode="U" horiz-adv-x="1685" 
d="M65 1369v37h628v-37q-84 -2 -127 -25t-54.5 -58t-11.5 -152v-624q0 -133 10.5 -192.5t59 -124.5t130.5 -101t197 -36q158 0 263.5 62t142.5 165.5t37 279.5v571q0 121 -13.5 156.5t-58 56.5t-138.5 22v37h516v-37q-99 0 -145 -21.5t-59 -57.5t-13 -156v-571
q0 -186 -45 -307.5t-182.5 -204t-325.5 -82.5q-163 0 -286.5 43t-191.5 116.5t-94 165t-26 224.5v616q0 121 -14 157t-58.5 56.5t-140.5 21.5z" />
    <glyph glyph-name="V" unicode="V" horiz-adv-x="1473" 
d="M26 1406h597v-37q-103 0 -129 -26t-26 -66q0 -39 47 -155l316 -779l297 789q40 106 40 137q0 95 -145 100v37h428v-37q-78 -2 -135.5 -76t-121.5 -244l-409 -1080h-38l-466 1153q-59 147 -106.5 195t-148.5 52v37z" />
    <glyph glyph-name="W" unicode="W" horiz-adv-x="2027" 
d="M17 1406h538v-37q-125 -4 -125 -92q0 -39 38 -143l279 -764l226 628l-72 186q-45 119 -81 150t-114 35v37h558v-37q-138 -10 -138 -98q0 -61 34 -151l287 -750l271 764q37 105 37 142q0 93 -148 93v37h408v-37q-66 -2 -110.5 -54t-98.5 -204l-402 -1142h-40l-342 901
l-327 -901h-34l-439 1196q-49 133 -82 167t-123 37v37z" />
    <glyph glyph-name="X" unicode="X" horiz-adv-x="1579" 
d="M28 1406h659v-37q-142 0 -142 -79q0 -37 47 -102l239 -331l288 348q39 47 39 84q0 80 -140 80v37h485v-37q-73 0 -116 -21t-79 -58.5t-198 -227.5l-227 -278l316 -439q153 -212 209.5 -260t144.5 -48v-37h-624v37q137 0 137 75q0 43 -53 114l-23 31l-254 353l-334 -402
q-48 -59 -48 -94q0 -75 135 -77v-37h-461v37q66 1 131 46.5t160 157.5l368 441l-324 445q-113 156 -175.5 198.5t-159.5 43.5v37z" />
    <glyph glyph-name="Y" unicode="Y" horiz-adv-x="1579" 
d="M1551 1406v-37q-97 0 -161.5 -50t-161.5 -201l-330 -515v-328q0 -122 13.5 -158.5t59 -58t144.5 -21.5v-37h-653v37q96 1 142 22t60 57.5t14 158.5v316l-385 572q-110 162 -148.5 184t-122.5 22v37h623v-37q-161 0 -161 -57q0 -46 68 -149l308 -465l268 420
q97 151 97 192q0 59 -138 59h-12v37h476z" />
    <glyph glyph-name="Z" unicode="Z" horiz-adv-x="1366" 
d="M195 1406h1113l-957 -1319h594q148 0 219.5 46t127.5 242h33l-70 -375h-1211v37l932 1287h-460q-202 0 -251.5 -67t-61.5 -198h-37z" />
    <glyph glyph-name="bracketleft" unicode="[" horiz-adv-x="555" 
d="M526 1442v-88h-244v-1671h244v-90h-405v1849h405z" />
    <glyph glyph-name="backslash" unicode="\" horiz-adv-x="575" 
d="M136 1469l439 -1500h-136l-439 1500h136z" />
    <glyph glyph-name="bracketright" unicode="]" horiz-adv-x="555" 
d="M29 -407v88h244v1671h-244v90h405v-1849h-405z" />
    <glyph glyph-name="asciicircum" unicode="^" horiz-adv-x="1194" 
d="M149 688l411 718h82l404 -718h-159l-295 512l-290 -512h-153z" />
    <glyph glyph-name="underscore" unicode="_" 
d="M-12 -154h1048v-102h-1048v102z" />
    <glyph glyph-name="grave" unicode="`" horiz-adv-x="682" 
d="M508 1125h-35l-299 344h228z" />
    <glyph glyph-name="a" unicode="a" 
d="M989 179v-52q-123 -155 -230 -155q-126 0 -130 172q-89 -86 -172.5 -129t-161.5 -43q-90 0 -151.5 68t-61.5 164q0 128 125.5 220.5t421.5 193.5q-1 142 -9.5 194.5t-48.5 85t-126 32.5q-68 0 -113 -37t-45 -100q0 -14 2 -33q1 -14 1 -26q0 -86 -80 -86q-89 0 -89 85
q0 101 99 170t265 69q123 0 194.5 -34.5t93.5 -92.5t22 -179v-476q0 -97 60 -97q59 0 134 86zM629 190v373q-228 -94 -302 -155.5t-74 -151.5q0 -69 44.5 -118t111.5 -49q52 0 107 25.5t113 75.5z" />
    <glyph glyph-name="b" unicode="b" horiz-adv-x="1131" 
d="M44 1350l287 119h36v-684q63 94 140.5 140.5t168.5 46.5q155 0 269 -133.5t114 -328.5q0 -234 -154 -386t-354 -152q-83 0 -170.5 31t-179.5 92v1045q0 106 -20 145t-78 39q-22 0 -46 -9zM367 724v-574q51 -55 107.5 -83t119.5 -28q131 0 211 124t80 276q0 156 -81 272.5
t-218 116.5q-57 0 -111.5 -26t-107.5 -78z" />
    <glyph glyph-name="c" unicode="c" horiz-adv-x="897" 
d="M874 354q-37 -158 -146 -270t-253 -112q-192 0 -306.5 144.5t-114.5 346.5q0 229 134.5 369t332.5 140q137 0 232.5 -69.5t95.5 -152.5q0 -35 -28 -57.5t-71 -22.5q-93 0 -108 101q-10 70 -45 105q-35 34 -111 34q-127 0 -197.5 -101.5t-70.5 -251.5q0 -187 89 -303.5
t241 -116.5q222 0 293 232z" />
    <glyph glyph-name="d" unicode="d" horiz-adv-x="1131" 
d="M602 1343l294 126h35v-1183q0 -105 19.5 -139t67.5 -34q29 0 62 15l14 -35l-328 -121v139q-65 -69 -137 -104t-151 -35q-164 0 -287 137.5t-123 331.5q0 214 144.5 372.5t336.5 158.5q56 0 110 -17.5t107 -53.5v259q0 90 -19 126.5t-68 36.5q-26 0 -60 -13zM766 180v448
q0 153 -81 220.5t-164 67.5q-108 0 -190 -116.5t-82 -284.5q0 -181 96.5 -304.5t228.5 -123.5q57 0 105 23.5t87 69.5z" />
    <glyph glyph-name="e" unicode="e" horiz-adv-x="897" 
d="M848 334q-33 -169 -138.5 -265.5t-243.5 -96.5q-165 0 -283 128.5t-118 362.5q0 227 115 368t308 141q163 0 261.5 -106.5t98.5 -272.5h-643q-1 -25 -1 -38q0 -153 93 -288t246 -135q197 0 273 219zM636 656q-3 117 -59.5 180t-143.5 63q-88 0 -151 -66t-73 -177h427z
" />
    <glyph glyph-name="f" unicode="f" horiz-adv-x="682" 
d="M74 950h132v52q0 131 32 227.5t128 168t214 71.5q98 0 179 -50.5t81 -119.5q0 -31 -25.5 -57t-57.5 -26q-51 0 -106 81q-67 99 -144 99q-47 0 -80 -27.5t-44 -69t-11 -174.5v-175h193v-63h-193v-660q0 -122 36 -156t133 -34v-37h-491v37q89 1 122.5 37t33.5 153v660h-132
v63z" />
    <glyph glyph-name="g" unicode="g" 
d="M730 913h220q42 0 42 -33v-37q0 -27 -36 -27h-147q53 -79 53 -174q0 -145 -101 -236t-253 -91q-67 0 -135 20q-41 -36 -62 -66.5t-21 -55.5q0 -36 44.5 -48.5t157.5 -12.5l170 1q170 0 247 -64q76 -65 76 -147q0 -162 -168 -269t-363 -107q-155 0 -272 62t-117 129
q0 40 32.5 89t163.5 180q-104 34 -104 101q0 49 41.5 106.5t123.5 122.5q-87 45 -130.5 115t-43.5 164q0 138 103 237.5t268 99.5q60 0 112.5 -14.5t98.5 -44.5zM319 723q0 -144 58 -250.5t158 -106.5q68 0 109.5 64.5t41.5 164.5q0 117 -57.5 219t-154.5 102
q-72 0 -113.5 -56.5t-41.5 -136.5zM308 16q-94 -100 -94 -177q0 -76 106 -113t240 -37q158 0 259 60t101 145q0 50 -48 76t-280 29.5t-284 16.5z" />
    <glyph glyph-name="h" unicode="h" horiz-adv-x="1131" 
d="M367 1469v-696q72 95 162 147t167 52q85 0 146.5 -51.5t80.5 -128.5t19 -216v-350q0 -103 25.5 -146t129.5 -43v-37h-476v37q103 1 127.5 45.5t24.5 143.5v392q0 86 -9.5 126t-52.5 72.5t-98 32.5q-41 0 -97 -20.5t-149 -106.5v-496q0 -120 35 -154.5t130 -34.5v-37h-481
v37q83 1 115.5 38t32.5 151v863q0 151 -16 192t-74 41q-26 0 -58 -11l-11 35l291 123h36z" />
    <glyph glyph-name="i" unicode="i" horiz-adv-x="555" 
d="M281 1474q43 0 74 -30.5t31 -74.5q0 -45 -31 -75.5t-74 -30.5q-44 0 -75 31t-31 75q0 43 31 74t75 31zM48 865l284 107h35v-745q0 -112 30.5 -148t111.5 -42v-37h-461v37q76 2 117.5 31.5t41.5 158.5v453q0 84 -22.5 121t-79.5 37q-24 0 -46 -10z" />
    <glyph glyph-name="j" unicode="j" horiz-adv-x="555" 
d="M301 1475q43 0 74.5 -31t31.5 -75t-31.5 -75t-74.5 -31t-74.5 31t-31.5 75t31.5 75t74.5 31zM60 868l298 104h35v-924q0 -241 -90.5 -361.5t-271.5 -120.5q-73 0 -126.5 28t-53.5 75q0 34 26 59.5t60 25.5q50 0 104 -49q62 -57 91 -57q59 0 77 56t18 252v721
q0 166 -94 166q-25 0 -62 -11z" />
    <glyph glyph-name="k" unicode="k" horiz-adv-x="1131" 
d="M54 1356l292 113h35v-936l290 278q37 35 37 59q0 43 -77 43v37h419v-37q-125 -1 -198.5 -50t-111.5 -85l-203 -192l256 -333q106 -138 164.5 -177t137.5 -39v-37h-456v37q65 3 65 39q0 28 -33 71l-290 376v-296q0 -102 25 -146t131 -44v-37h-483v37q90 1 123.5 37
t33.5 153v897q0 132 -18 169t-76 37q-22 0 -50 -9z" />
    <glyph glyph-name="l" unicode="l" horiz-adv-x="555" 
d="M371 1469v-1243q0 -116 31.5 -151t104.5 -38v-37h-461v37q107 1 132 47.5t25 141.5v883q0 103 -4.5 133.5t-28 55t-61.5 24.5q-23 0 -49 -12l-14 36l290 123h35z" />
    <glyph glyph-name="m" unicode="m" horiz-adv-x="1685" 
d="M359 972v-195l36 37q153 158 283 158q95 0 154.5 -51.5t83.5 -155.5q75 104 160 155.5t179 51.5q78 0 141 -44.5t86.5 -120t23.5 -204.5v-375q0 -103 25.5 -147t129.5 -44v-37h-484v37q93 1 127 36.5t34 154.5v380v63q1 82 -45.5 130.5t-118.5 48.5q-121 0 -229 -107
l-21 -19q1 -5 2 -22q6 -48 6 -106v-368q0 -103 25.5 -147t130.5 -44v-37h-486v37q94 1 128.5 36.5t34.5 154.5v368q0 129 -38.5 191t-129.5 62q-107 0 -214 -102l-24 -23v-496q0 -108 28 -149.5t123 -41.5v-37h-478v37q92 1 126 37t34 154v432q0 96 -22.5 138t-79.5 42
q-18 0 -41 -6q-12 -4 -17 -5l-15 36l307 107h35z" />
    <glyph glyph-name="n" unicode="n" horiz-adv-x="1131" 
d="M367 972v-200q99 112 170 156t155 44q114 0 182 -85q68 -86 68 -249v-411q0 -109 31.5 -148t112.5 -42v-37h-479v37q95 0 131 37t36 153v401q0 111 -41.5 167.5t-121.5 56.5q-60 0 -121 -34t-123 -102v-489q0 -107 31.5 -147.5t123.5 -42.5v-37h-470v37q90 2 119 43.5
t29 146.5v461q0 150 -83 150q-29 0 -65 -17l-14 39l294 112h35z" />
    <glyph glyph-name="o" unicode="o" horiz-adv-x="1131" 
d="M1039 505q0 -211 -144.5 -372t-346.5 -161q-183 0 -320 137.5t-137 338.5q0 198 140 361t351 163q185 0 321 -139.5t136 -327.5zM854 420q0 194 -87 337.5t-233 143.5q-119 0 -188.5 -99.5t-69.5 -271.5q0 -194 88 -341t230 -147q113 0 186.5 101t73.5 277z" />
    <glyph glyph-name="p" unicode="p" horiz-adv-x="1131" 
d="M371 972v-217q70 109 152 163t175 54q144 0 258 -131t114 -338q0 -231 -144 -381t-324 -150q-70 0 -128 22t-103 65v-261q0 -115 36 -153.5t139 -38.5v-38h-511v38q98 0 134 35.5t36 156.5v861q0 108 -21.5 142.5t-67.5 34.5q-26 0 -65 -12l-16 36l301 112h35zM371 692
v-352q0 -118 20.5 -172.5t79 -94t132.5 -39.5q133 0 211.5 108t78.5 288q0 169 -76 283t-206 114q-65 0 -125 -33.5t-115 -101.5z" />
    <glyph glyph-name="q" unicode="q" horiz-adv-x="1131" 
d="M934 972v-1176q0 -103 24.5 -146.5t131.5 -43.5v-38h-495v38q74 0 104 11t48.5 48t18.5 131v358q-75 -91 -156 -136.5t-167 -45.5q-140 0 -253.5 122.5t-113.5 346.5q0 234 143.5 382.5t336.5 148.5q60 0 116.5 -16t110.5 -49q68 24 115 65h36zM766 214v452
q0 86 -21 133.5t-77.5 80.5t-128.5 33q-135 0 -213.5 -112.5t-78.5 -293.5q0 -170 83 -281.5t224 -111.5q68 0 111 21t95 72z" />
    <glyph glyph-name="r" unicode="r" horiz-adv-x="789" 
d="M378 972v-205q62 103 127.5 154t133.5 51q48 0 86 -37t38 -82q0 -31 -27 -59.5t-64 -28.5q-38 0 -86 41q-36 31 -56 31q-38 0 -76 -35t-76 -105v-469q0 -121 37.5 -156t143.5 -35v-37h-503v37q86 3 120.5 38.5t34.5 152.5v435q0 116 -25.5 142.5t-63.5 26.5
q-26 0 -54 -12l-12 34l284 118h38z" />
    <glyph glyph-name="s" unicode="s" horiz-adv-x="789" 
d="M635 950v-289h-37q-14 107 -78.5 180.5t-153.5 73.5q-72 0 -118.5 -36t-46.5 -84q0 -66 46 -112q46 -47 151 -98q173 -84 240 -155q67 -72 67 -175q0 -137 -100.5 -210t-205.5 -73q-65 0 -162 29q-49 14 -67 14q-22 0 -38 -15h-42v320h35q21 -144 100.5 -215t174.5 -71
q62 0 110.5 41t48.5 99q0 70 -47 120q-48 49 -205 137q-153 85 -188 146q-35 60 -35 125q0 117 81.5 193.5t202.5 76.5q49 0 116 -19q52 -15 73 -15q25 0 41 12h37z" />
    <glyph glyph-name="t" unicode="t" horiz-adv-x="682" 
d="M371 1252v-302h218v-60h-218v-626q0 -87 29.5 -130.5t88.5 -43.5q35 0 67 20t61 59h41q-51 -98 -116 -147.5t-144 -49.5q-96 0 -144.5 68t-48.5 204v646h-145v39q210 85 279 323h32z" />
    <glyph glyph-name="u" unicode="u" horiz-adv-x="1131" 
d="M37 950h338v-635q0 -106 39.5 -159.5t118.5 -53.5q62 0 123 31.5t120 94.5v543q0 70 -19.5 93t-38 35.5t-101.5 13.5v37h328v-673q0 -94 21 -131t69 -37q28 0 68 17v-40l-289 -114h-38v204q-86 -102 -167 -153t-158 -51q-83 0 -144 49.5t-79.5 118t-18.5 190.5v441
q0 76 -31.5 109t-113.5 33h-27v37z" />
    <glyph glyph-name="v" unicode="v" 
d="M29 950h426v-37q-102 -6 -102 -83q0 -45 37 -132l190 -466l218 541q21 51 21 75q0 60 -105 65v37h286v-37q-48 -5 -71.5 -32.5t-65.5 -136.5l-311 -772h-40l-275 675q-67 164 -105.5 213t-102.5 53v37z" />
    <glyph glyph-name="w" unicode="w" horiz-adv-x="1473" 
d="M29 950h374v-37q-86 -5 -86 -65q0 -34 20 -90l192 -528l199 441l-46 123q-30 77 -60 98t-93 21v37h436v-37q-117 0 -117 -74q0 -26 14 -64l200 -531l202 531q15 41 15 65q0 71 -108 73v37h281v-37q-36 -1 -63 -35.5t-70 -147.5l-287 -758h-39l-230 609l-270 -609h-39
l-288 786q-36 98 -65.5 125.5t-71.5 29.5v37z" />
    <glyph glyph-name="x" unicode="x" 
d="M46 950h428v-37q-78 -5 -78 -51q0 -27 40 -90l87 -138l98 145q36 54 36 81q0 49 -75 53v37h315v-37q-105 -1 -235 -193l-100 -148l160 -253q83 -132 145 -205.5t123 -76.5v-37h-419v37q87 0 87 47q0 31 -59 126l-136 216l-175 -259q-34 -51 -34 -79q0 -51 91 -51v-37
h-310v37q89 6 207 181l182 269l-161 253q-54 85 -99.5 128.5t-117.5 44.5v37z" />
    <glyph glyph-name="y" unicode="y" 
d="M34 950h424v-37q-61 -2 -86 -18.5t-25 -55.5t19 -83l232 -518l159 433q59 158 59 181q0 52 -95 61v37h271v-37q-46 -7 -70.5 -44.5t-85.5 -197.5l-258 -699q-88 -239 -174.5 -322.5t-192.5 -83.5q-60 0 -98.5 31t-38.5 80q0 42 30 68.5t77 26.5q30 0 94 -27
q28 -11 47 -11q89 0 166 204l32 83l-330 735q-68 152 -156 157v37z" />
    <glyph glyph-name="z" unicode="z" horiz-adv-x="895" 
d="M96 950h762v-37l-609 -846h344q125 0 170 52.5t46 164.5h38l-13 -284h-805v37l605 842h-331q-90 0 -125 -35.5t-49 -145.5h-33v252z" />
    <glyph glyph-name="braceleft" unicode="{" horiz-adv-x="981" 
d="M840 -360v-35q-163 19 -269.5 133.5t-106.5 250.5q0 74 21 160q25 103 25 159q0 67 -60.5 131.5t-167.5 77.5v40q108 14 168 78t60 131q0 56 -25 159q-21 87 -21 160q0 136 107 250.5t269 133.5v-35q-122 -28 -174 -95t-52 -133q0 -63 24 -166q21 -89 21 -157
q0 -110 -79 -202.5t-216 -141.5q138 -50 216.5 -146t78.5 -201q0 -69 -21 -157q-24 -104 -24 -167q0 -73 55 -136t171 -92z" />
    <glyph glyph-name="bar" unicode="|" horiz-adv-x="405" 
d="M135 1469h133v-1903h-133v1903z" />
    <glyph glyph-name="braceright" unicode="}" horiz-adv-x="981" 
d="M177 1434v35q162 -19 269 -133.5t107 -250.5q0 -73 -21 -160q-25 -103 -25 -159q0 -67 60.5 -131.5t167.5 -77.5v-40q-108 -13 -168 -77.5t-60 -131.5q0 -56 25 -159q21 -86 21 -160q0 -136 -107 -250.5t-269 -133.5v35q122 28 174 95.5t52 132.5q0 63 -24 167
q-22 88 -22 156q0 110 79.5 202.5t216.5 141.5q-138 50 -217 146.5t-79 201.5q0 68 22 157q24 103 24 166q0 73 -55 136t-171 92z" />
    <glyph glyph-name="asciitilde" unicode="~" horiz-adv-x="1366" 
d="M1171 853h51q-5 -145 -78.5 -224t-178.5 -79q-51 0 -102.5 14.5t-272.5 105.5q-150 62 -215 62q-149 0 -180 -180h-52q5 156 80.5 229t167.5 73q101 0 382 -121q150 -64 217 -64q160 0 181 184z" />
    <glyph glyph-name="nbspace" unicode="&#xa0;" horiz-adv-x="512" 
 />
    <glyph glyph-name="currency" unicode="&#xa4;" horiz-adv-x="1409" 
d="M977 1064l127 127l88 -90l-126 -126q90 -126 90 -273t-90 -272l126 -125l-88 -89l-127 125q-62 -45 -130 -68t-143 -23q-141 0 -272 91l-127 -125l-89 89l127 125q-91 124 -91 272q0 140 91 273l-127 126l89 90l127 -127q64 45 132 67.5t140 22.5q139 0 273 -90z
M704 1028q-131 0 -228 -93t-97 -233q0 -134 95.5 -229.5t229.5 -95.5q135 0 230 95.5t95 229.5q0 135 -95.5 230.5t-229.5 95.5z" />
    <glyph glyph-name="brokenbar" unicode="&#xa6;" horiz-adv-x="405" 
d="M135 1469h133v-825h-133v825zM135 389h133v-823h-133v823z" />
    <glyph glyph-name="section" unicode="&#xa7;" horiz-adv-x="789" 
d="M261 877q-62 62 -93.5 127.5t-31.5 134.5q0 122 84 205t207 83q103 0 178 -65t75 -157q0 -38 -22 -65t-56 -27q-75 0 -75 83q0 25 6 51q8 35 8 52q0 39 -32.5 65t-79.5 26q-80 0 -134.5 -54t-54.5 -119q0 -80 51 -144q50 -65 176 -157q120 -87 204 -187.5t84 -221.5
q0 -224 -222 -348q63 -62 94 -127.5t31 -135.5q0 -123 -83 -206.5t-206 -83.5q-104 0 -179.5 67.5t-75.5 160.5q0 36 24 62t57 26q32 0 51.5 -23.5t19.5 -55.5q0 -28 -8 -60q-7 -29 -7 -45q0 -40 34 -67t83 -27q79 0 134 55t55 113q0 40 -13 77.5t-40 71.5q-53 68 -219 191
q-248 184 -248 373q0 223 224 352zM294 846q-158 -86 -158 -224q0 -91 57 -164.5t166 -155.5q103 -78 144 -114q156 83 156 226q0 64 -33 123.5t-131 142.5z" />
    <glyph glyph-name="copyright" unicode="&#xa9;" horiz-adv-x="1599" 
d="M799 1438q301 0 516 -214t215 -516q0 -301 -214.5 -515.5t-516.5 -214.5q-301 0 -515.5 214.5t-214.5 515.5q0 196 100 368t271 267t359 95zM799 1374q-172 0 -328 -86.5t-247.5 -243.5t-91.5 -337q0 -276 195.5 -471.5t471.5 -195.5q275 0 471.5 196t196.5 471
q0 180 -91.5 337t-247.5 243.5t-329 86.5zM1160 1176l21 -288h-40q-74 243 -312 243q-165 0 -248 -114t-83 -286q0 -218 93.5 -321.5t247.5 -103.5q201 0 321 166l39 -19q-143 -209 -395 -209q-212 0 -344.5 136t-132.5 321q0 191 141 333.5t372 142.5q74 0 191 -38
q26 -8 39 -8q33 0 50 45h40z" />
    <glyph glyph-name="guillemotleft" unicode="&#xab;" 
d="M454 992h58l-247 -474l247 -481h-58l-390 481zM908 992h59l-246 -474l246 -481h-59l-396 481z" />
    <glyph glyph-name="logicalnot" unicode="&#xac;" horiz-adv-x="1366" 
d="M141 1001h1085v-597h-129v468h-956v129z" />
    <glyph glyph-name="registered" unicode="&#xae;" horiz-adv-x="1599" 
d="M799 1438q301 0 516 -214t215 -516q0 -301 -214.5 -515.5t-516.5 -214.5q-301 0 -515.5 214.5t-214.5 515.5q0 196 100 368t271 267t359 95zM799 1374q-172 0 -328 -86.5t-247.5 -243.5t-91.5 -337q0 -276 195.5 -471.5t471.5 -195.5q275 0 471.5 196t196.5 471
q0 180 -91.5 337t-247.5 243.5t-329 86.5zM420 1156h397q141 0 224 -64t83 -166q0 -87 -57 -144t-172 -85l216 -307q60 -86 124 -90v-35h-189l-304 417h-78v-318q5 -26 24 -45t97 -19v-35h-377v35q51 0 73 13t28 34t6 95v538q0 90 -16 114t-79 25v37zM664 727h31
q130 0 196.5 50.5t66.5 136.5q0 83 -58 139.5t-149 56.5q-42 0 -87 -15v-368z" />
    <glyph glyph-name="degree" unicode="&#xb0;" horiz-adv-x="811" 
d="M405 1438q127 0 217.5 -90t90.5 -218q0 -126 -90.5 -216.5t-217.5 -90.5q-126 0 -216.5 90.5t-90.5 216.5q0 128 90.5 218t216.5 90zM405 1354q-90 0 -156.5 -63.5t-66.5 -159.5q0 -92 65 -157.5t158 -65.5t158 65.5t65 157.5t-65.5 157.5t-157.5 65.5z" />
    <glyph glyph-name="plusminus" unicode="&#xb1;" horiz-adv-x="1366" 
d="M140 937h478v480h129v-480h480v-129h-480v-477h-129v477h-478v129zM140 129h1087v-129h-1087v129z" />
    <glyph glyph-name="mu" unicode="&#xb5;" horiz-adv-x="1067" 
d="M127 950h169v-554q0 -177 34 -237.5t112 -60.5q61 0 122 34.5t122 103.5v714h170v-680v-61q-1 -61 20.5 -93.5t50.5 -32.5q65 0 83 127h43q-18 -238 -204 -238q-72 0 -112.5 49t-50.5 147q-79 -98 -160 -147t-164 -49q-51 0 -91 22t-69 65q-1 -32 -1 -47q0 -84 35 -247
q14 -62 14 -109q0 -40 -26 -76t-71 -36t-67.5 34.5t-22.5 76.5q0 49 30 172q35 142 35 270l-1 100v753z" />
    <glyph glyph-name="paragraph" unicode="&#xb6;" horiz-adv-x="961" 
d="M983 1406v-37h-42q-78 0 -99 -36.5t-21 -174.5v-1590h-75v1781h-193v-1781h-76v1055q-498 6 -498 394q0 175 121.5 282t345.5 107h537z" />
    <glyph glyph-name="periodcentered" unicode="&#xb7;" horiz-adv-x="555" 
d="M277 816q46 0 80 -32.5t34 -81.5q0 -47 -33.5 -80t-80.5 -33q-46 0 -79.5 33t-33.5 80t33.5 80.5t79.5 33.5z" />
    <glyph glyph-name="periodcentered" unicode="&#x2219;" horiz-adv-x="555" 
d="M277 816q46 0 80 -32.5t34 -81.5q0 -47 -33.5 -80t-80.5 -33q-46 0 -79.5 33t-33.5 80t33.5 80.5t79.5 33.5z" />
    <glyph glyph-name="guillemotright" unicode="&#xbb;" 
d="M570 37h-58l247 479l-247 476h58l390 -476zM116 37h-59l246 479l-246 476h59l396 -476z" />
    <glyph glyph-name="afii10023" unicode="&#x401;" horiz-adv-x="1366" 
d="M421 1782q54 0 93 -38.5t39 -93.5q0 -54 -39 -93t-93 -39t-93 38.5t-39 93.5q0 56 39 94t93 38zM939 1781q53 0 92 -38t39 -94q0 -55 -38.5 -93.5t-92.5 -38.5q-55 0 -93.5 38.5t-38.5 93.5q0 56 39 94t93 38zM1189 1406l18 -310h-36q-13 92 -54 146t-86.5 68.5
t-127.5 14.5h-405v-543h362q184 0 184 205h37v-495h-37q0 127 -48 168t-145 41h-353v-509q0 -69 23.5 -90t90.5 -21h291q143 0 219.5 57t158.5 213h39l-113 -351h-1133v37q90 0 134.5 24.5t56 60t11.5 151.5v861q0 121 -13.5 156.5t-56.5 56t-132 22.5v37h1115z" />
    <glyph glyph-name="afii10051" unicode="&#x402;" horiz-adv-x="1643" 
d="M77 1406h1093l13 -296h-37q-33 209 -252 209h-176v-554q88 104 185.5 155.5t205.5 51.5q115 0 221 -59t171.5 -167.5t65.5 -254.5q0 -210 -112 -357.5t-255 -147.5q-84 0 -155 52l20 36q53 -36 98 -36q70 0 110 66.5t40 343.5q0 241 -78.5 319.5t-190.5 78.5
q-90 0 -171.5 -48.5t-154.5 -145.5v-428q0 -104 44 -144.5t154 -42.5v-37h-618v37q107 0 152.5 37.5t45.5 139.5v1105h-155q-225 0 -252 -209h-37z" />
    <glyph glyph-name="afii10052" unicode="&#x403;" horiz-adv-x="1282" 
d="M995 1820l-510 -300h-36l180 300h366zM1229 1406l15 -321h-37q-23 146 -114 190t-223 44h-363v-1142q0 -68 49 -103t157 -37v-37h-628v37q86 0 129.5 21.5t57.5 54.5t14 124v942q0 121 -44 155.5t-157 34.5v37h1144z" />
    <glyph glyph-name="afii10053" unicode="&#x404;" horiz-adv-x="1429" 
d="M1335 1438l28 -480h-37q-35 197 -173.5 302.5t-309.5 105.5q-224 0 -365 -173.5t-149 -425.5h617v-88h-617q2 -301 159.5 -460.5t385.5 -159.5q289 0 489 275l24 -26q-89 -154 -242 -246.5t-340 -92.5q-167 0 -339.5 82t-281 253t-108.5 388q0 310 221.5 528t537.5 218
q143 0 291 -63q75 -32 94 -32q54 0 78 95h37z" />
    <glyph glyph-name="afii10054" unicode="&#x405;" horiz-adv-x="1131" 
d="M943 1436v-465h-38q-21 162 -126 273t-249 111q-104 0 -174.5 -60.5t-70.5 -145.5q0 -63 44 -119q43 -57 229 -166q120 -70 222 -136t174 -158.5t72 -212.5q0 -175 -134.5 -281.5t-298.5 -106.5q-109 0 -296 62q-38 12 -65 12q-54 0 -83 -74h-38v474h38
q43 -204 155 -298.5t249 -94.5q119 0 195 62.5t76 160.5q0 83 -66 165q-67 81 -282 203q-218 123 -295 212q-77 88 -77 221q0 153 115 258.5t283 105.5q96 0 253 -60q40 -16 70 -16q53 0 80 74h38z" />
    <glyph glyph-name="afii10055" unicode="&#x406;" horiz-adv-x="791" 
d="M72 1369v37h647v-37q-95 -1 -139 -21t-58.5 -56.5t-14.5 -157.5v-861q0 -119 12.5 -155t58 -58.5t141.5 -22.5v-37h-647v37q94 1 139.5 21.5t59.5 57t14 157.5v861q0 122 -14.5 158.5t-59 56t-139.5 20.5z" />
    <glyph glyph-name="afii10056" unicode="&#x407;" horiz-adv-x="789" 
d="M139 1782q53 0 92.5 -37.5t39.5 -94.5q0 -54 -39 -93t-93 -39t-93 38.5t-39 93.5q0 57 39.5 94.5t92.5 37.5zM652 1781q54 0 93.5 -38t39.5 -94q0 -55 -39 -93.5t-94 -38.5q-54 0 -93 38.5t-39 93.5q0 54 39 93t93 39zM72 1369v37h647v-37q-94 -1 -138.5 -21t-59 -56.5
t-14.5 -157.5v-861q0 -119 13 -155t58 -58.5t141 -22.5v-37h-647v37q95 1 140 21.5t59 57t14 157.5v861q0 122 -14.5 158.5t-59 56t-139.5 20.5z" />
    <glyph glyph-name="afii10057" unicode="&#x408;" horiz-adv-x="897" 
d="M214 1369v37h629v-37q-87 -3 -130 -23t-56 -56t-13 -156v-635q0 -167 -33 -277t-122.5 -181.5t-222.5 -71.5q-99 0 -165.5 42.5t-66.5 111.5q0 44 30 74t74 30q73 0 120 -96q45 -89 91 -89q43 0 58 48t15 220v824q0 121 -13.5 156.5t-57 56.5t-137.5 22z" />
    <glyph glyph-name="afii10058" unicode="&#x409;" horiz-adv-x="1962" 
d="M1248 778h82q179 0 288.5 -29.5t190.5 -127t81 -235.5q0 -131 -74.5 -228t-179.5 -127.5t-275 -30.5h-542v37q111 0 159 35t48 126v1121h-429v-550q0 -464 -111.5 -624t-268.5 -160q-75 0 -124.5 36t-49.5 94q0 43 30 74.5t78 31.5q39 0 113 -52q41 -29 61 -29
q95 0 142 173t47 518v279q0 120 -11.5 164t-54.5 69.5t-127 25.5v37h1133v-37q-126 0 -166 -41t-40 -166v-384zM1248 89q44 -14 87 -14q124 0 213 81.5t89 224.5q0 145 -84.5 233.5t-245.5 88.5q-22 0 -59 -1v-613z" />
    <glyph glyph-name="afii10059" unicode="&#x40a;" horiz-adv-x="1985" 
d="M491 778h527v414q0 72 -21.5 109.5t-58 52t-120.5 15.5v37h620v-37q-105 0 -151.5 -35.5t-46.5 -141.5v-414h35q338 0 482 -97.5t144 -294.5q0 -130 -75 -227.5t-173.5 -128t-271.5 -30.5h-563v37h26q174 0 174 162v504h-527v-476q0 -106 42.5 -146.5t157.5 -43.5v-37
h-619v37q110 3 154 40t44 135v980q0 100 -47 138.5t-151 38.5v37h619v-37q-110 0 -155 -37.5t-45 -139.5v-414zM1240 81q44 -6 84 -6q168 0 245.5 86.5t77.5 223.5q0 160 -101.5 240t-305.5 80v-624z" />
    <glyph glyph-name="afii10060" unicode="&#x40b;" horiz-adv-x="1663" 
d="M717 766q95 103 195.5 154.5t205.5 51.5q111 0 213 -68q101 -69 101 -231v-444q0 -75 11.5 -107.5t52.5 -56.5t102 -28v-37h-563v37q84 0 130 35.5t46 142.5v437q0 120 -54.5 155.5t-116.5 35.5q-94 0 -181.5 -57t-141.5 -134v-428q0 -104 44 -144.5t154 -42.5v-37h-618
v37q107 0 152.5 37.5t45.5 140.5v1104h-155q-225 0 -252 -209h-37l25 296h1093l13 -296h-37q-33 209 -252 209h-176v-553z" />
    <glyph glyph-name="afii10061" unicode="&#x40c;" horiz-adv-x="1536" 
d="M1115 1820l-511 -300h-36l180 300h367zM498 764h49q125 0 212.5 74.5t159.5 268.5q55 147 91 196t96.5 83t167.5 34q187 0 187 -115q0 -46 -34 -78t-78 -32q-45 0 -121 46q-43 26 -69 26q-52 0 -79 -31q-27 -32 -75 -158q-107 -277 -239 -336q135 -42 276 -252
q6 -8 13 -18l85 -122q142 -203 208 -258t151 -55h21v-37h-367l-351 485q-68 94 -124.5 144t-142.5 50h-37v-490q0 -152 168 -152h38v-37h-633v37h29q177 0 177 174v990q0 95 -49.5 131.5t-156.5 36.5v37h633v-37h-32q-98 0 -136 -41.5t-38 -133.5v-430z" />
    <glyph glyph-name="afii10062" unicode="&#x40e;" horiz-adv-x="1497" 
d="M1120 1817q30 0 52.5 -26t22.5 -62q0 -90 -94.5 -153.5t-289.5 -63.5q-201 0 -292.5 64t-91.5 153q0 35 22 61.5t55 26.5t57 -25t66 -112q60 -124 184 -124t184 124q43 88 65.5 112.5t59.5 24.5zM6 1406h598v-37h-25q-136 0 -136 -80q0 -28 31 -82l402 -713l299 691
q31 73 31 100q0 84 -121 84h-26v37h432v-37q-146 -17 -228 -201l-407 -913q-127 -286 -381 -286q-90 0 -136 37t-46 82q0 102 106 102q62 0 138 -61q39 -31 62 -31q73 0 154 148l-521 949q-58 106 -109 140t-117 34v37z" />
    <glyph glyph-name="afii10145" unicode="&#x40f;" horiz-adv-x="1685" 
d="M76 0v37h25q96 0 136 42t40 131v1008q0 151 -170 151h-31v37h625v-37q-84 0 -121 -12.5t-59 -50.5t-22 -112v-1005q0 -64 19 -84t92 -20h483q55 0 74 22.5t19 81.5v1005q0 96 -45 134.5t-157 40.5v37h625v-37h-32q-169 0 -169 -175v-990q0 -89 43.5 -128t157.5 -39v-37
h-386q-362 0 -362 -394h-37q0 197 -89 295.5t-301 98.5h-358z" />
    <glyph glyph-name="afii10017" unicode="&#x410;" horiz-adv-x="1579" 
d="M795 1469l556 -1282q37 -86 73.5 -118t123.5 -32v-37h-577v37q148 0 148 99q0 31 -28 95l-106 243h-567l-126 -287q-11 -27 -11 -56q0 -94 151 -94v-37h-406v37q60 7 99.5 44.5t90.5 154.5l541 1233h38zM702 1123l-250 -573h500z" />
    <glyph glyph-name="afii10018" unicode="&#x411;" horiz-adv-x="1323" 
d="M79 1406h1056l12 -322h-37q-11 235 -267 235h-344v-541h143q322 0 462.5 -115t140.5 -279q0 -163 -130.5 -273.5t-367.5 -110.5h-668v37q93 0 130.5 19t53 55t15.5 126v932q0 86 -16.5 124.5t-53.5 56t-129 19.5v37zM499 693v-601q68 -17 150 -17q148 0 245.5 87.5
t97.5 243.5q0 139 -99.5 218t-268.5 79q-59 0 -125 -10z" />
    <glyph glyph-name="afii10019" unicode="&#x412;" horiz-adv-x="1366" 
d="M961 722q153 -29 235.5 -125.5t82.5 -218.5t-74 -214t-183.5 -128t-288.5 -36h-645v37q91 0 136 24t56.5 59.5t11.5 152.5v861q0 121 -13.5 156.5t-57 56t-133.5 22.5v37h564q305 0 434.5 -110.5t129.5 -264.5q0 -107 -68.5 -194t-186.5 -115zM514 1327v-549
q113 -22 175 -22q110 0 200.5 76.5t90.5 206.5q0 135 -98.5 218t-238.5 83q-60 0 -129 -13zM514 682v-583q83 -27 170 -27q160 0 248 87t88 215q0 149 -114 232t-297 83q-43 0 -95 -7z" />
    <glyph glyph-name="afii10020" unicode="&#x413;" horiz-adv-x="1282" 
d="M1229 1406l15 -321h-37q-23 146 -114 190t-223 44h-363v-1142q0 -68 49 -103t157 -37v-37h-628v37q86 0 129.5 21.5t57.5 54.5t14 124v942q0 121 -44 155.5t-157 34.5v37h1144z" />
    <glyph glyph-name="afii10021" unicode="&#x414;" horiz-adv-x="1530" 
d="M281 1406h1182v-37h-36q-88 0 -125 -41t-37 -130v-970q0 -119 43.5 -155t133.5 -36h21v-431h-36q-44 196 -145 295t-356 99h-395q-130 0 -210.5 -35.5t-155 -134t-101.5 -224.5h-38v431q210 8 334 342.5t124 789.5q0 125 -46 161.5t-157 38.5v37zM583 1319l-24 -376
q-37 -565 -262 -855h639q70 0 89 18t19 91v1122h-461z" />
    <glyph glyph-name="afii10022" unicode="&#x415;" horiz-adv-x="1366" 
d="M1189 1406l18 -310h-36q-13 92 -54 146t-86.5 68.5t-127.5 14.5h-405v-543h362q184 0 184 205h37v-495h-37q0 127 -48 168t-145 41h-353v-509q0 -69 23.5 -90t90.5 -21h291q143 0 219.5 57t158.5 213h39l-113 -351h-1133v37q90 0 134.5 24.5t56 60t11.5 151.5v861
q0 121 -13.5 156.5t-56.5 56t-132 22.5v37h1115z" />
    <glyph glyph-name="afii10024" unicode="&#x416;" horiz-adv-x="2042" 
d="M1329 37v-37h-618v37q84 0 121 15t58.5 51.5t21.5 99.5v489q-81 0 -106 -17t-128 -187.5t-270 -487.5h-363v37q59 0 119.5 33.5t102.5 91t151 247.5q124 210 153.5 247t97.5 74q-62 36 -95.5 98t-85.5 234q-43 138 -64 173q-22 35 -55 35q-35 0 -95 -35q-68 -40 -113 -40
q-36 0 -66 26t-30 75q0 54 50 89t129 35q81 0 146 -30t101 -89t88 -232q58 -193 111.5 -250.5t167.5 -57.5q22 0 54 4v439q0 92 -48 128.5t-153 36.5v37h618v-37q-91 -4 -122 -14t-54.5 -46.5t-23.5 -97.5v-446q34 -4 54 -4q114 0 169 57t114 254q51 168 84 226.5t93.5 90
t141.5 31.5q88 0 138.5 -36.5t50.5 -86.5q0 -41 -29.5 -71.5t-66.5 -30.5q-41 0 -110 41q-60 35 -96 35q-33 0 -53 -29q-20 -30 -67 -177q-59 -185 -87.5 -237t-91.5 -98q65 -35 101.5 -79t190.5 -314q121 -211 192.5 -255.5t139.5 -44.5v-37h-363l-350 618q-27 48 -56 61
t-99 13v-483q0 -85 39.5 -128.5t137.5 -43.5h23z" />
    <glyph glyph-name="afii10025" unicode="&#x417;" horiz-adv-x="1090" 
d="M122 1438h40q14 -62 66 -62q24 0 70 15q142 47 261 47q156 0 276.5 -99.5t120.5 -267.5q0 -273 -278 -340q152 -20 237 -119.5t85 -238.5q0 -173 -138 -288.5t-361 -115.5q-284 0 -436 277l31 19q141 -200 352 -200q156 0 227.5 92.5t71.5 234.5q0 141 -97 225t-275 84
q-19 0 -46 -1v68q216 0 310 79t94 239q0 118 -60 194.5t-181 76.5q-279 0 -335 -338h-35v419z" />
    <glyph glyph-name="afii10026" unicode="&#x418;" horiz-adv-x="1688" 
d="M990 1406h626v-37q-110 0 -156.5 -37t-46.5 -128v-981q0 -69 12.5 -103.5t50.5 -58.5t108 -24h32v-37h-626v37h38q55 0 94 20.5t54.5 55.5t15.5 110v848l-697 -858q0 -72 13.5 -103t51.5 -52t98 -21h39v-37h-626v37h35q88 0 127.5 43t39.5 143v981q0 88 -38.5 126.5
t-137.5 38.5h-26v37h626v-37h-39q-163 0 -163 -165v-865l697 859q0 97 -41 134t-130 37h-31v37z" />
    <glyph glyph-name="afii10027" unicode="&#x419;" horiz-adv-x="1688" 
d="M1167 1817q30 0 52.5 -26t22.5 -62q0 -89 -92 -153t-292 -64q-194 0 -289 63t-95 154q0 35 22 61.5t55 26.5t57 -25t66 -112q60 -124 184 -124t184 124q43 88 65.5 112.5t59.5 24.5zM990 1406h626v-37q-110 0 -156.5 -37t-46.5 -128v-981q0 -69 12.5 -103.5t50.5 -58.5
t108 -24h32v-37h-626v37h38q55 0 94 20.5t54.5 55.5t15.5 110v848l-697 -858q0 -72 13.5 -103t51.5 -52t98 -21h39v-37h-626v37h35q88 0 127.5 43t39.5 143v981q0 88 -38.5 126.5t-137.5 38.5h-26v37h626v-37h-39q-163 0 -163 -165v-865l697 859q0 97 -41 134t-130 37h-31
v37z" />
    <glyph glyph-name="afii10028" unicode="&#x41a;" horiz-adv-x="1536" 
d="M498 764h49q125 0 212.5 74.5t159.5 268.5q55 147 91 196t96.5 83t167.5 34q187 0 187 -115q0 -46 -34 -78t-78 -32q-45 0 -121 46q-43 26 -69 26q-52 0 -79 -31q-27 -32 -75 -158q-107 -277 -239 -336q135 -42 276 -252q6 -8 13 -18l85 -122q142 -203 208 -258t151 -55
h21v-37h-367l-351 485q-68 94 -124.5 144t-142.5 50h-37v-490q0 -152 168 -152h38v-37h-633v37h29q177 0 177 174v990q0 95 -49.5 131.5t-156.5 36.5v37h633v-37h-32q-98 0 -136 -41.5t-38 -133.5v-430z" />
    <glyph glyph-name="afii10029" unicode="&#x41b;" horiz-adv-x="1536" 
d="M288 1369v37h1175v-37q-106 0 -153.5 -34.5t-47.5 -124.5v-1007q0 -97 48 -131.5t153 -34.5v-37h-628v37q113 3 159.5 39t46.5 127v1116h-465v-550q0 -391 -89 -587t-267 -196q-176 0 -176 128q0 51 32 79.5t65 28.5q41 0 97 -42q53 -40 77 -40q80 0 127 153t47 441v471
q0 164 -177 164h-24z" />
    <glyph glyph-name="afii10030" unicode="&#x41c;" horiz-adv-x="2027" 
d="M1512 1406h426v-37q-91 -2 -135 -22.5t-57 -56.5t-13 -155v-862q0 -117 11.5 -152.5t56 -59.5t137.5 -24v-37h-633v37q92 0 137.5 23.5t57.5 59t12 153.5v907l-545 -1180h-35l-547 1180v-907q0 -118 11.5 -153t55 -58t130.5 -25v-37h-494v37q92 0 137 24t56.5 59.5
t11.5 152.5v853q0 92 -16 135t-61.5 71t-127.5 37v37h431l499 -1074z" />
    <glyph glyph-name="afii10031" unicode="&#x41d;" horiz-adv-x="1685" 
d="M496 679v-406q0 -118 12 -153.5t57 -59t138 -23.5v-37h-631v37q90 0 134.5 24t56 59.5t11.5 152.5v861q0 121 -13.5 156.5t-56.5 56t-132 22.5v37h631v-37q-91 -2 -135 -22t-58 -56t-14 -157v-369h692v369q0 121 -13.5 156.5t-57.5 56.5t-139 22v37h636v-37
q-89 -2 -132.5 -21.5t-57.5 -56t-14 -157.5v-861q0 -117 12 -152.5t56.5 -59.5t135.5 -24v-37h-636v37q94 1 139 22.5t58 58t13 155.5v406h-692z" />
    <glyph glyph-name="afii10032" unicode="&#x41e;" horiz-adv-x="1579" 
d="M1503 706q0 -169 -78 -339t-252 -284t-379 -114q-287 0 -503 212t-216 523q0 300 208.5 517t504.5 217q294 0 504.5 -213.5t210.5 -518.5zM1250 699q0 288 -119.5 473t-344.5 185q-223 0 -340.5 -181.5t-117.5 -468.5q0 -303 127.5 -481t335.5 -178q205 0 332 175.5
t127 475.5z" />
    <glyph glyph-name="afii10033" unicode="&#x41f;" horiz-adv-x="1675" 
d="M1180 1319h-685v-1095q0 -72 12.5 -106t50.5 -57.5t89 -23.5h53v-37h-628v37h32q169 0 169 175v990q0 89 -43.5 128t-157.5 39v37h1531v-37h-26q-82 0 -128.5 -35t-46.5 -137v-1009q0 -151 170 -151h31v-37h-628v37h53q52 0 88.5 22.5t50 56.5t13.5 108v1095z" />
    <glyph glyph-name="afii10034" unicode="&#x420;" horiz-adv-x="1237" 
d="M472 673v-400q0 -119 12.5 -155t57.5 -58.5t140 -22.5v-37h-632v37q88 1 132 24t56 58.5t12 153.5v861q0 121 -13.5 156.5t-56 56t-130.5 22.5v37h599q271 0 410 -118.5t139 -276.5q0 -154 -125.5 -269t-329.5 -115q-122 0 -271 46zM472 1302v-559q103 -40 173 -40
q136 0 217.5 84t81.5 218q0 149 -94.5 236.5t-227.5 87.5q-71 0 -150 -27z" />
    <glyph glyph-name="afii10035" unicode="&#x421;" horiz-adv-x="1473" 
d="M1360 1439l33 -476h-33q-39 206 -182 304t-308 98q-229 0 -377.5 -168t-148.5 -517q0 -307 163 -464.5t394 -157.5q170 0 300 86t192 191l31 -20q-205 -346 -597 -346q-311 0 -527.5 208t-216.5 507q0 315 222.5 534.5t544.5 219.5q175 0 339 -76q36 -16 57 -16
q50 0 77 93h37z" />
    <glyph glyph-name="afii10036" unicode="&#x422;" horiz-adv-x="1366" 
d="M62 1406h1238l20 -318h-40q-18 139 -91 184t-208 45h-189v-1044q0 -117 11.5 -152.5t56 -59.5t138.5 -24v-37h-631v37q90 0 135 24.5t56 60t11 151.5v1044h-182q-112 0 -162 -15t-92.5 -72.5t-48.5 -141.5h-37z" />
    <glyph glyph-name="afii10037" unicode="&#x423;" horiz-adv-x="1497" 
d="M6 1406h598v-37h-25q-136 0 -136 -80q0 -28 31 -82l402 -713l299 691q31 73 31 100q0 84 -121 84h-26v37h432v-37q-146 -17 -228 -201l-407 -913q-127 -286 -381 -286q-90 0 -136 37t-46 82q0 102 106 102q62 0 138 -61q39 -31 62 -31q73 0 154 148l-521 949
q-58 106 -109 140t-117 34v37z" />
    <glyph glyph-name="afii10038" unicode="&#x424;" horiz-adv-x="1780" 
d="M577 1406h627v-37q-116 -2 -159.5 -40.5t-43.5 -124.5q59 1 99 1q290 0 446.5 -139.5t156.5 -351.5t-160 -357t-439 -145q-33 0 -103 4q0 -114 49 -146.5t154 -32.5v-37h-627v37q104 0 153.5 32t49.5 147q-72 -4 -119 -4q-251 0 -417 139.5t-166 362.5q0 215 158 353
t454 138q30 0 90 -1q0 88 -45 125.5t-158 39.5v37zM1001 1135v-849q36 -11 81 -11q196 0 296.5 124.5t100.5 316.5q0 204 -107.5 315.5t-289.5 111.5q-42 0 -81 -8zM780 1135q-42 8 -81 8q-183 0 -290.5 -111.5t-107.5 -315.5q0 -191 100 -316t297 -125q46 0 82 11v849z" />
    <glyph glyph-name="afii10039" unicode="&#x425;" horiz-adv-x="1579" 
d="M28 1406h659v-37q-142 0 -142 -79q0 -37 47 -102l239 -331l288 348q39 47 39 84q0 80 -140 80v37h485v-37q-73 0 -116 -21t-79 -58.5t-198 -227.5l-227 -278l316 -439q153 -212 209.5 -260t144.5 -48v-37h-624v37q137 0 137 75q0 43 -53 114l-23 31l-254 353l-334 -402
q-48 -59 -48 -94q0 -75 135 -77v-37h-461v37q66 1 131 46.5t160 157.5l368 441l-324 445q-113 156 -175.5 198.5t-159.5 43.5v37z" />
    <glyph glyph-name="afii10040" unicode="&#x426;" horiz-adv-x="1685" 
d="M1601 37v-431h-35q-45 196 -146 295t-356 99h-988v37q107 0 152.5 42.5t45.5 155.5v971q0 83 -37 123t-129 40h-32v37h625v-37h-45q-84 0 -122.5 -46.5t-38.5 -150.5v-968q0 -74 17 -95t90 -21h473q70 0 88.5 18t18.5 91v1009q0 163 -165 163h-41v37h625v-37h-35
q-74 0 -118 -32t-44 -140v-967q0 -82 16 -118.5t53 -55.5t108 -19h20z" />
    <glyph glyph-name="afii10041" unicode="&#x427;" horiz-adv-x="1530" 
d="M36 1406h630v-37q-104 0 -155 -34.5t-51 -128.5v-344q0 -128 64.5 -175t167.5 -47q136 0 343 83v466q0 111 -52 145.5t-154 34.5v37h630v-37q-103 0 -153 -34t-50 -138v-1003q0 -157 171 -157h32v-37h-630v37h31q98 0 136.5 44t38.5 141v423q-246 -116 -437 -116
q-128 0 -208.5 40.5t-115.5 102.5t-35 190v344q0 83 -45.5 123t-157.5 40v37z" />
    <glyph glyph-name="afii10042" unicode="&#x428;" horiz-adv-x="2298" 
d="M73 1406h584v-37q-83 0 -130.5 -35t-47.5 -154v-990q0 -63 20.5 -82.5t90.5 -19.5h337q69 0 90 19.5t21 82.5v990q0 97 -36.5 143t-141.5 46v37h578v-37q-63 0 -106 -21.5t-57.5 -56t-14.5 -111.5v-990q0 -63 20.5 -82.5t91.5 -19.5h336q70 0 91 19.5t21 82.5v990
q0 97 -38 143t-140 46v37h583v-37q-102 0 -142.5 -42t-40.5 -147v-968q0 -94 42.5 -134.5t140.5 -40.5v-37h-2152v37q184 0 184 161v995q0 176 -163 176h-21v37z" />
    <glyph glyph-name="afii10043" unicode="&#x429;" horiz-adv-x="2298" 
d="M73 0v37q184 0 184 161v995q0 176 -163 176h-21v37h584v-37q-83 0 -130.5 -35t-47.5 -154v-990q0 -63 20.5 -82.5t90.5 -19.5h337q69 0 90 19.5t21 82.5v990q0 97 -36.5 143t-141.5 46v37h578v-37q-63 0 -106 -21.5t-57.5 -56t-14.5 -111.5v-990q0 -63 20.5 -82.5
t91.5 -19.5h336q70 0 91 19.5t21 82.5v990q0 97 -38 143t-140 46v37h583v-37q-102 0 -142.5 -42t-40.5 -147v-968q0 -94 42.5 -134.5t140.5 -40.5v-431h-37q-43 193 -143 293.5t-356 100.5h-1616z" />
    <glyph glyph-name="afii10044" unicode="&#x42a;" horiz-adv-x="1550" 
d="M502 1319h-131q-139 0 -206.5 -51t-89.5 -190h-37l27 328h862v-37h-31q-101 0 -136.5 -45.5t-35.5 -155.5v-390h120q329 0 477.5 -109.5t148.5 -283.5q0 -140 -118.5 -262.5t-388.5 -122.5h-662v37q89 2 132.5 24t56 57.5t12.5 154.5v1046zM724 695v-603q68 -17 155 -17
q138 0 238 86t100 245q0 145 -104 221t-281 76q-63 0 -108 -8z" />
    <glyph glyph-name="afii10045" unicode="&#x42b;" horiz-adv-x="2009" 
d="M77 1369v37h623v-37h-30q-173 0 -173 -145v-446h120q329 0 477.5 -109t148.5 -284q0 -141 -118.5 -263t-388.5 -122h-659v37h30q90 0 129.5 41.5t39.5 140.5v973q0 73 -26 112t-58 50.5t-115 14.5zM497 695v-603q68 -17 150 -17q143 0 243 84.5t100 242.5t-112 229.5
t-270 71.5q-53 0 -111 -8zM1295 1369v37h647v-37q-95 -1 -139.5 -21t-59 -56.5t-14.5 -157.5v-861q0 -119 13 -155t58 -58.5t142 -22.5v-37h-647v37q94 1 139.5 21.5t59.5 57t14 157.5v861q0 122 -14.5 158.5t-59 56t-139.5 20.5z" />
    <glyph glyph-name="afii10046" unicode="&#x42c;" horiz-adv-x="1323" 
d="M72 1369v37h623v-37h-30q-173 0 -173 -145v-446h120q329 0 477.5 -109t148.5 -284q0 -141 -118.5 -263t-388.5 -122h-659v37h30q90 0 129.5 41.5t39.5 140.5v973q0 73 -26 112t-58 50.5t-115 14.5zM492 695v-603q68 -17 150 -17q143 0 243 84.5t100 242.5t-112 229.5
t-270 71.5q-53 0 -111 -8z" />
    <glyph glyph-name="afii10047" unicode="&#x42d;" horiz-adv-x="1429" 
d="M97 1438l-28 -480h37q35 197 173.5 302.5t309.5 105.5q224 0 365 -173.5t149 -425.5h-617v-88h617q-2 -301 -159.5 -460.5t-385.5 -159.5q-289 0 -489 275l-24 -26q89 -154 242 -246.5t340 -92.5q167 0 339.5 82t281 253t108.5 388q0 310 -221.5 528t-537.5 218
q-143 0 -291 -63q-75 -32 -94 -32q-54 0 -78 95h-37z" />
    <glyph glyph-name="afii10048" unicode="&#x42e;" horiz-adv-x="2261" 
d="M496 765h305q15 265 211 469t483 204q185 0 332.5 -87.5t254 -252.5t106.5 -388q0 -319 -208.5 -530t-477.5 -211q-153 0 -320 85t-273 253.5t-108 369.5h-305v-458q0 -103 42.5 -142.5t154.5 -39.5v-37h-616v37q103 2 150 39.5t47 135.5v988q0 87 -44 128t-153 41v37
h616v-37q-114 0 -155.5 -38.5t-41.5 -145.5v-420zM1513 1351q-206 0 -333 -158t-127 -497q0 -316 122 -478.5t318 -162.5q141 0 240.5 80t150.5 207.5t51 351.5q0 223 -48.5 357.5t-147.5 217t-226 82.5z" />
    <glyph glyph-name="afii10049" unicode="&#x42f;" horiz-adv-x="1534" 
d="M676 680l-318 -393q-111 -138 -181.5 -189.5t-162.5 -60.5v-37h367l532 660q15 -2 34 -2q71 0 99 2v-387q0 -117 -11.5 -152.5t-54.5 -58.5t-131 -25v-37h614v37q-84 3 -126.5 24.5t-55.5 57t-13 154.5v861q0 114 10 147.5t50 58.5t110 28l25 1v37h-645
q-263 0 -381 -110.5t-118 -255.5q0 -267 357 -360zM1046 1298v-569q-474 0 -474 304q0 120 87.5 211t228.5 91q75 0 158 -37z" />
    <glyph glyph-name="afii10065" unicode="&#x430;" 
d="M989 179v-52q-123 -155 -230 -155q-126 0 -130 172q-89 -86 -172.5 -129t-161.5 -43q-90 0 -151.5 68t-61.5 164q0 128 125.5 220.5t421.5 193.5q-1 142 -9.5 194.5t-48.5 85t-126 32.5q-68 0 -113 -37t-45 -100q0 -14 2 -33q1 -14 1 -26q0 -86 -80 -86q-89 0 -89 85
q0 101 99 170t265 69q123 0 194.5 -34.5t93.5 -92.5t22 -179v-476q0 -97 60 -97q59 0 134 86zM629 190v373q-228 -94 -302 -155.5t-74 -151.5q0 -69 44.5 -118t111.5 -49q52 0 107 25.5t113 75.5z" />
    <glyph glyph-name="afii10066" unicode="&#x431;" horiz-adv-x="1131" 
d="M989 1456h37q-28 -86 -77 -133.5t-115.5 -63t-210.5 -16.5q-128 -2 -191.5 -21.5t-124 -89.5t-98 -201.5t-47.5 -303.5q46 164 161 254.5t260 90.5q167 0 311 -127.5t144 -346.5q0 -218 -141 -372t-331 -154q-197 0 -331.5 153t-134.5 426q0 228 47 407.5t124.5 284
t168.5 138t264 33.5l148 -1q109 0 137 43zM291 529q0 -252 94 -371t217 -119q95 0 174 88.5t79 284.5q0 212 -88 347.5t-224 135.5q-103 0 -177.5 -84t-74.5 -282z" />
    <glyph glyph-name="afii10067" unicode="&#x432;" 
d="M59 950h440q212 0 301.5 -60t89.5 -187q0 -79 -46 -129t-139 -72q120 -22 180 -80.5t60 -152.5q0 -78 -43.5 -137.5t-128 -95.5t-274.5 -36h-440v37q79 3 116.5 34.5t37.5 133.5v554q0 87 -35.5 120.5t-118.5 33.5v37zM377 524q28 -2 53 -2q140 0 210 47t70 141
q0 88 -65.5 131.5t-196.5 43.5q-28 0 -71 -1v-360zM377 86q72 -20 132 -20q101 0 172.5 58t71.5 145q0 94 -76 142.5t-202 48.5q-40 0 -98 -1v-373z" />
    <glyph glyph-name="afii10068" unicode="&#x433;" horiz-adv-x="907" 
d="M52 0v37q98 0 129 40.5t31 133.5v572q0 67 -25 98.5t-135 31.5v37h791l37 -253h-43q-26 115 -60 151t-117 36h-283v-654q0 -119 35.5 -156t138.5 -37v-37h-499z" />
    <glyph glyph-name="afii10069" unicode="&#x434;" horiz-adv-x="1087" 
d="M11 -254v291q98 1 162.5 70.5t114.5 256t50 382.5q0 95 -34 130t-119 37v37h852v-37q-80 0 -116.5 -33t-36.5 -156v-546q0 -141 153 -141v-291h-37q-1 102 -69.5 178t-210.5 76h-397q-248 0 -275 -254h-37zM401 885q0 -602 -175 -819h397q66 0 81.5 17t15.5 86v716h-319z
" />
    <glyph glyph-name="afii10070" unicode="&#x435;" horiz-adv-x="897" 
d="M848 334q-33 -169 -138.5 -265.5t-243.5 -96.5q-165 0 -283 128.5t-118 362.5q0 227 115 368t308 141q163 0 261.5 -106.5t98.5 -272.5h-643q-1 -25 -1 -38q0 -153 93 -288t246 -135q197 0 273 219zM636 656q-3 117 -59.5 180t-143.5 63q-88 0 -151 -66t-73 -177h427z
" />
    <glyph glyph-name="afii10072" unicode="&#x436;" horiz-adv-x="1466" 
d="M956 950v-37q-79 0 -107.5 -32.5t-28.5 -119.5v-231h34q73 0 119.5 43.5t86.5 159.5q46 131 96.5 178.5t136.5 47.5q51 0 81 -31.5t30 -66.5t-26.5 -58.5t-62.5 -23.5q-22 0 -65 17q-31 12 -51 12q-53 0 -87 -96q-37 -106 -58 -138.5t-68 -57.5q111 -35 188 -199l12 -22
l67 -120q74 -133 172 -138v-37h-257l-207 361q-66 115 -119 115q-9 0 -22 -2v-287q0 -89 28.5 -118.5t107.5 -31.5v-37h-445v37q80 2 108 32t28 118v287q-13 2 -21 2q-55 0 -120 -115l-207 -361h-257v37q98 5 173 138l66 120l12 22q87 173 188 199q-47 25 -68.5 58
t-57.5 138q-34 96 -85 96q-22 0 -53 -12q-43 -17 -65 -17q-35 0 -62 23.5t-27 58.5q0 36 30.5 67t80.5 31q85 0 136.5 -47.5t96.5 -178.5q42 -122 90 -162.5t116 -40.5h34v231q0 87 -28.5 119.5t-107.5 32.5v37h445z" />
    <glyph glyph-name="afii10073" unicode="&#x437;" horiz-adv-x="854" 
d="M86 950h37q26 -18 43 -18q24 0 68 14q79 26 174 26q165 0 253.5 -69t88.5 -169q0 -171 -253 -221q293 -47 293 -261q0 -125 -110.5 -202.5t-279.5 -77.5q-217 0 -367 175l26 24q160 -125 319 -125q95 0 157.5 60.5t62.5 158.5q0 93 -69.5 152.5t-200.5 59.5v62
q108 0 175.5 50.5t67.5 147.5q0 85 -56.5 135.5t-142.5 50.5q-193 0 -254 -262h-38z" />
    <glyph glyph-name="afii10074" unicode="&#x438;" horiz-adv-x="1157" 
d="M52 950h449v-37q-79 0 -107 -33t-28 -120v-486l424 500q0 139 -135 139v37h449v-37q-84 -3 -116.5 -36t-32.5 -117v-560q0 -89 34 -124t115 -39v-37h-449v37q80 0 107.5 34.5t27.5 115.5v495l-424 -495q0 -88 27.5 -118t107.5 -32v-37h-449v37q149 1 149 150v573
q0 97 -36.5 125t-112.5 28v37z" />
    <glyph glyph-name="afii10075" unicode="&#x439;" horiz-adv-x="1157" 
d="M263 1315q0 77 70 77q65 0 116 -123q44 -106 140 -106q63 0 95 28q32 27 60 96q42 105 103 105q31 0 52 -21.5t21 -53.5q0 -77 -101.5 -143t-227.5 -66q-165 0 -246.5 60t-81.5 147zM52 950h449v-37q-79 0 -107 -33t-28 -120v-486l424 500q0 139 -135 139v37h449v-37
q-84 -3 -116.5 -36t-32.5 -117v-560q0 -89 34 -124t115 -39v-37h-449v37q80 0 107.5 34.5t27.5 115.5v495l-424 -495q0 -88 27.5 -118t107.5 -32v-37h-449v37q149 1 149 150v573q0 97 -36.5 125t-112.5 28v37z" />
    <glyph glyph-name="afii10076" unicode="&#x43a;" horiz-adv-x="1075" 
d="M56 950h469v-37q-83 0 -116 -38.5t-33 -127.5v-211q27 -1 40 -1q155 0 216 194q74 232 228 232q62 0 94.5 -30.5t32.5 -65.5q0 -33 -25 -59.5t-69 -26.5q-20 0 -47 10q-43 16 -67 16q-35 0 -54.5 -21t-38.5 -89q-36 -122 -106 -170q74 -23 160 -174q5 -9 11 -18l106 -169
q54 -85 92 -105.5t80 -21.5v-37h-265l-253 406q-45 73 -92 73q-15 0 -43 -5v-287q0 -149 149 -150v-37h-469v37q87 3 121 36.5t34 113.5v560q0 100 -36.5 133t-118.5 33v37z" />
    <glyph glyph-name="afii10077" unicode="&#x43b;" horiz-adv-x="1085" 
d="M151 950h880v-37q-73 0 -115 -30t-42 -137v-532q0 -92 33.5 -134.5t123.5 -42.5v-37h-486v37q99 0 131.5 41.5t32.5 146.5v659h-339v-504q0 -217 -52.5 -312.5t-178.5 -95.5q-131 0 -131 113q0 34 21.5 55t48.5 21q41 0 86 -49q20 -21 45 -21q49 0 72 73t23 253v329
q0 71 -12.5 100t-49.5 47.5t-91 19.5v37z" />
    <glyph glyph-name="afii10078" unicode="&#x43c;" horiz-adv-x="1364" 
d="M375 950l302 -718l318 718h315v-37q-86 0 -117.5 -38t-31.5 -152v-536q0 -150 149 -150v-37h-456v37q61 2 101 27.5t40 122.5v600l-349 -787h-39l-340 787v-574q0 -95 28 -132.5t114 -43.5v-37h-357v37q86 4 117.5 41t31.5 135v538q0 85 -33.5 123.5t-115.5 38.5v37h323z
" />
    <glyph glyph-name="afii10079" unicode="&#x43d;" horiz-adv-x="1157" 
d="M366 526h424v235q0 81 -30 116.5t-105 35.5v37h449v-37q-84 -3 -116.5 -36t-32.5 -116v-561q0 -89 34 -124t115 -39v-37h-449v37q79 0 107 34t28 116v274h-424v-274q0 -88 27.5 -118t107.5 -32v-37h-449v37q149 1 149 150v574q0 97 -37 124.5t-112 27.5v37h449v-37
q-78 0 -106.5 -32.5t-28.5 -119.5v-235z" />
    <glyph glyph-name="afii10080" unicode="&#x43e;" horiz-adv-x="1131" 
d="M1039 505q0 -211 -144.5 -372t-346.5 -161q-183 0 -320 137.5t-137 338.5q0 198 140 361t351 163q185 0 321 -139.5t136 -327.5zM854 420q0 194 -87 337.5t-233 143.5q-119 0 -188.5 -99.5t-69.5 -271.5q0 -194 88 -341t230 -147q113 0 186.5 101t73.5 277z" />
    <glyph glyph-name="afii10081" unicode="&#x43f;" horiz-adv-x="1157" 
d="M52 950h1052v-37q-84 -3 -116.5 -36t-32.5 -117v-560q0 -89 34 -124t115 -39v-37h-449v37q79 0 107 34t28 116v697h-424v-697q0 -88 27.5 -118t107.5 -32v-37h-449v37q149 1 149 150v573q0 97 -36.5 125t-112.5 28v37z" />
    <glyph glyph-name="afii10082" unicode="&#x440;" horiz-adv-x="1131" 
d="M371 972v-217q70 109 152 163t175 54q144 0 258 -131t114 -338q0 -231 -144 -381t-324 -150q-70 0 -128 22t-103 65v-261q0 -115 36 -153.5t139 -38.5v-38h-511v38q98 0 134 35.5t36 156.5v861q0 108 -21.5 142.5t-67.5 34.5q-26 0 -65 -12l-16 36l301 112h35zM371 692
v-352q0 -118 20.5 -172.5t79 -94t132.5 -39.5q133 0 211.5 108t78.5 288q0 169 -76 283t-206 114q-65 0 -125 -33.5t-115 -101.5z" />
    <glyph glyph-name="afii10083" unicode="&#x441;" horiz-adv-x="897" 
d="M874 354q-37 -158 -146 -270t-253 -112q-192 0 -306.5 144.5t-114.5 346.5q0 229 134.5 369t332.5 140q137 0 232.5 -69.5t95.5 -152.5q0 -35 -28 -57.5t-71 -22.5q-93 0 -108 101q-10 70 -45 105q-35 34 -111 34q-127 0 -197.5 -101.5t-70.5 -251.5q0 -187 89 -303.5
t241 -116.5q222 0 293 232z" />
    <glyph glyph-name="afii10084" unicode="&#x442;" horiz-adv-x="975" 
d="M570 884v-693q0 -79 35 -115.5t118 -38.5v-37h-471v37q86 0 119.5 36t33.5 128v683h-153q-80 0 -115.5 -34t-61.5 -153h-43l37 253h837l37 -253h-43q-26 116 -60.5 151.5t-116.5 35.5h-153z" />
    <glyph glyph-name="afii10085" unicode="&#x443;" 
d="M34 950h424v-37q-61 -2 -86 -18.5t-25 -55.5t19 -83l232 -518l159 433q59 158 59 181q0 52 -95 61v37h271v-37q-46 -7 -70.5 -44.5t-85.5 -197.5l-258 -699q-88 -239 -174.5 -322.5t-192.5 -83.5q-60 0 -98.5 31t-38.5 80q0 42 30 68.5t77 26.5q30 0 94 -27
q28 -11 47 -11q89 0 166 204l32 83l-330 735q-68 152 -156 157v37z" />
    <glyph glyph-name="afii10086" unicode="&#x444;" horiz-adv-x="1366" 
d="M923 -394v-38h-474v38q88 0 120 39.5t32 125.5v294q-44 -46 -92.5 -69.5t-102.5 -23.5q-133 0 -232.5 143t-99.5 358q0 211 97.5 355t233.5 144q52 0 101 -23t95 -70v343q0 106 -66 106q-24 0 -70 -16l-16 32l279 125h37v-590q44 47 93 70t103 23q124 0 227.5 -135
t103.5 -368q0 -223 -100.5 -360t-230.5 -137q-51 0 -100 23.5t-96 69.5v-306q0 -84 36 -119.5t122 -33.5zM601 815q-43 45 -82 67t-73 22q-97 0 -146 -107.5t-49 -323.5t49.5 -324t147.5 -108q34 0 72.5 22t80.5 66v686zM765 129q41 -44 79 -66.5t72 -22.5q100 0 149.5 106
t49.5 318q0 220 -49 330t-147 110q-35 0 -73.5 -22t-80.5 -67v-686z" />
    <glyph glyph-name="afii10087" unicode="&#x445;" 
d="M46 950h428v-37q-78 -5 -78 -51q0 -27 40 -90l87 -138l98 145q36 54 36 81q0 49 -75 53v37h315v-37q-105 -1 -235 -193l-100 -148l160 -253q83 -132 145 -205.5t123 -76.5v-37h-419v37q87 0 87 47q0 31 -59 126l-136 216l-175 -259q-34 -51 -34 -79q0 -51 91 -51v-37
h-310v37q89 6 207 181l182 269l-161 253q-54 85 -99.5 128.5t-117.5 44.5v37z" />
    <glyph glyph-name="afii10088" unicode="&#x446;" horiz-adv-x="1161" 
d="M55 950h449v-37q-78 0 -107 -32.5t-29 -120.5v-610q0 -61 19 -72.5t89 -11.5h232q59 0 72 15t13 75v604q0 82 -29.5 117.5t-105.5 35.5v37h446v-37q-82 -3 -114 -36t-32 -117v-585q0 -84 37 -111t109 -27v-291h-38q-15 254 -280 254h-731v37q149 1 149 150v573
q0 97 -36.5 125t-112.5 28v37z" />
    <glyph glyph-name="afii10089" unicode="&#x447;" horiz-adv-x="1087" 
d="M38 950h436v-37q-79 0 -107.5 -33t-28.5 -119v-170q0 -81 31 -111t133 -30q100 0 221 59v252q0 93 -34 122.5t-102 29.5v37h449v-37q-84 -3 -116.5 -36t-32.5 -116v-561q0 -89 34 -124t115 -39v-37h-472v37q86 1 122.5 36t36.5 114v270q-140 -85 -332 -85
q-93 0 -142 25.5t-62.5 62t-13.5 131.5v170q0 92 -33.5 122t-101.5 30v37z" />
    <glyph glyph-name="afii10090" unicode="&#x448;" horiz-adv-x="1659" 
d="M1606 950v-37q-85 0 -114.5 -42.5t-29.5 -163.5v-523q0 -74 33.5 -110.5t110.5 -36.5v-37h-1554v37q76 4 109.5 38t33.5 118v573q0 82 -32 113.5t-111 33.5v37h449v-37q-83 -1 -112 -39.5t-29 -131.5v-566q0 -75 16.5 -92.5t86.5 -17.5h191q63 0 78 18t15 92v590
q0 76 -30.5 111.5t-106.5 35.5v37h441v-37q-71 0 -105.5 -36.5t-34.5 -147.5v-553q0 -75 18 -92.5t92 -17.5h177q64 0 82 18t18 83v599q0 74 -29.5 109t-109.5 38v37h447z" />
    <glyph glyph-name="afii10091" unicode="&#x449;" horiz-adv-x="1659" 
d="M52 0v37q76 4 109.5 38t33.5 118v573q0 82 -32 113.5t-111 33.5v37h449v-37q-82 -1 -111.5 -39t-29.5 -132v-566q0 -74 16.5 -92t86.5 -18h191q63 0 78 18t15 92v590q0 76 -30.5 111.5t-106.5 35.5v37h441v-37q-71 0 -105.5 -36.5t-34.5 -147.5v-553q0 -75 18 -92.5
t92 -17.5h177q64 0 82 17.5t18 83.5v599q0 73 -29 108.5t-110 38.5v37h447v-37q-85 0 -114.5 -42.5t-29.5 -163.5v-506q0 -97 29.5 -130.5t114.5 -33.5v-291h-38q-15 254 -279 254h-1237z" />
    <glyph glyph-name="afii10092" unicode="&#x44a;" horiz-adv-x="1139" 
d="M81 950h622v-37q-86 0 -130.5 -30t-44.5 -147v-197h117q158 0 242 -22t138 -84.5t54 -149.5q0 -106 -95.5 -194.5t-330.5 -88.5h-448v37q86 0 122.5 36t36.5 114v697h-100q-81 0 -116 -35t-61 -152h-43zM528 83q62 -18 110 -18q113 0 181 59t68 150q0 93 -60.5 146
t-167.5 53q-72 0 -131 -10v-380z" />
    <glyph glyph-name="afii10093" unicode="&#x44b;" horiz-adv-x="1473" 
d="M52 0v37q85 0 122 33t37 119v574q0 80 -33.5 115t-125.5 35v37h499v-37q-86 0 -130.5 -29.5t-44.5 -147.5v-197h116q159 0 243 -22t138 -84.5t54 -149.5q0 -89 -62 -161t-144.5 -97t-244.5 -25h-424zM376 83q62 -18 109 -18q113 0 181 59t68 150q0 93 -60.5 146
t-167.5 53q-72 0 -130 -10v-380zM946 950h474v-37q-88 0 -121.5 -36t-33.5 -127v-571q0 -78 35 -110t120 -32v-37h-474v37q84 0 119 32t35 110v571q0 88 -33 124.5t-121 38.5v37z" />
    <glyph glyph-name="afii10094" unicode="&#x44c;" horiz-adv-x="1006" 
d="M380 539h116q159 0 243 -22t138 -84.5t54 -149.5q0 -89 -62 -161t-144.5 -97t-244.5 -25h-424v37q85 0 122 33t37 119v574q0 80 -33.5 115t-125.5 35v37h499v-37q-86 0 -130.5 -29.5t-44.5 -147.5v-197zM380 83q65 -18 109 -18q122 0 185.5 62.5t63.5 146.5
q0 93 -59.5 146t-168.5 53q-72 0 -130 -10v-380z" />
    <glyph glyph-name="afii10095" unicode="&#x44d;" horiz-adv-x="911" 
d="M654 534h-313v-63h313q-2 -213 -70.5 -319.5t-204.5 -106.5q-167 0 -305 163l-31 -23q159 -213 371 -213q181 0 306.5 145.5t125.5 376.5q0 226 -128.5 352t-296.5 126q-79 0 -164 -30q-52 -18 -78 -18q-27 0 -46 15h-18v-279h37q19 127 94.5 187t165.5 60
q117 0 177.5 -93t64.5 -280z" />
    <glyph glyph-name="afii10096" unicode="&#x44e;" horiz-adv-x="1604" 
d="M372 522h232q30 194 158.5 322t308.5 128q184 0 326.5 -133t142.5 -345q0 -213 -144.5 -367.5t-343.5 -154.5q-188 0 -313.5 139.5t-134.5 349.5h-232v-282q0 -77 36 -109.5t119 -32.5v-37h-474v37q82 0 118.5 32.5t36.5 109.5v571q0 88 -33.5 124.5t-121.5 38.5v37h474
v-37q-77 0 -116 -29.5t-39 -133.5v-228zM787 537q0 -228 96.5 -363t212.5 -135q91 0 168 92.5t77 289.5q0 226 -91.5 355.5t-217.5 129.5q-108 0 -176.5 -100.5t-68.5 -268.5z" />
    <glyph glyph-name="afii10097" unicode="&#x44f;" horiz-adv-x="997" 
d="M26 0v37h21q63 0 110 70l235 348q-125 35 -187.5 96.5t-62.5 149.5q0 94 85.5 171.5t284.5 77.5h434v-37q-79 -7 -108.5 -47t-29.5 -140v-526q0 -88 30 -125t108 -38v-37h-442v37q80 3 110 41t30 134v215h-83l-296 -427h-239zM644 870q-51 15 -103 15q-104 0 -156 -54.5
t-52 -129.5q0 -82 68 -144t207 -62h36v375z" />
    <glyph glyph-name="afii10071" unicode="&#x451;" horiz-adv-x="897" 
d="M308 1412q45 0 77 -32t32 -76q0 -46 -32 -77.5t-77 -31.5q-44 0 -76 31.5t-32 77.5t32.5 77t75.5 31zM660 1410q46 0 77.5 -31.5t31.5 -76.5q0 -44 -31.5 -76t-77.5 -32q-45 0 -76.5 32t-31.5 76q0 46 32 77t76 31zM847 334q-33 -169 -138.5 -265.5t-243.5 -96.5
q-165 0 -283 128.5t-118 362.5q0 227 115 368t308 141q163 0 261.5 -106.5t98.5 -272.5h-643q-1 -25 -1 -38q0 -153 93 -288t246 -135q197 0 273 219zM635 656q-3 117 -59.5 180t-143.5 63q-88 0 -151 -66t-73 -177h427z" />
    <glyph glyph-name="afii10099" unicode="&#x452;" horiz-adv-x="1010" 
d="M364 1191h430v-62h-430v-363q67 103 135 154.5t138 51.5q119 0 202 -137t83 -451q0 -259 -71.5 -456t-186.5 -279.5t-216 -82.5q-9 0 -34 2v38q101 16 174 83.5t106.5 197t33.5 460.5q0 208 -12.5 304t-56 146t-98.5 50q-47 0 -96.5 -35t-100.5 -105v-481
q0 -120 35 -154.5t130 -34.5v-37h-479v37q84 1 116.5 38.5t32.5 150.5v903h-160v62h160q-2 131 -90 131q-25 0 -59 -11l-11 35l287 123h38v-278z" />
    <glyph glyph-name="afii10100" unicode="&#x453;" horiz-adv-x="907" 
d="M306 1125l106 344h228l-299 -344h-35zM52 0v37q98 0 129 40.5t31 133.5v572q0 67 -25 98.5t-135 31.5v37h791l37 -253h-43q-26 115 -60 151t-117 36h-283v-654q0 -119 35.5 -156t138.5 -37v-37h-499z" />
    <glyph glyph-name="afii10101" unicode="&#x454;" horiz-adv-x="911" 
d="M256 534h313v-63h-313q2 -213 70.5 -319.5t204.5 -106.5q167 0 305 163l31 -23q-159 -213 -371 -213q-181 0 -306.5 145.5t-125.5 376.5q0 226 128.5 352t296.5 126q79 0 164 -30q52 -18 78 -18q27 0 46 15h18v-279h-37q-19 127 -94.5 187t-165.5 60q-117 0 -177.5 -93
t-64.5 -280z" />
    <glyph glyph-name="afii10102" unicode="&#x455;" horiz-adv-x="789" 
d="M635 950v-289h-37q-14 107 -78.5 180.5t-153.5 73.5q-72 0 -118.5 -36t-46.5 -84q0 -66 46 -112q46 -47 151 -98q173 -84 240 -155q67 -72 67 -175q0 -137 -100.5 -210t-205.5 -73q-65 0 -162 29q-49 14 -67 14q-22 0 -38 -15h-42v320h35q21 -144 100.5 -215t174.5 -71
q62 0 110.5 41t48.5 99q0 70 -47 120q-48 49 -205 137q-153 85 -188 146q-35 60 -35 125q0 117 81.5 193.5t202.5 76.5q49 0 116 -19q52 -15 73 -15q25 0 41 12h37z" />
    <glyph glyph-name="afii10103" unicode="&#x456;" horiz-adv-x="555" 
d="M281 1474q43 0 74 -30.5t31 -74.5q0 -45 -31 -75.5t-74 -30.5q-44 0 -75 31t-31 75q0 43 31 74t75 31zM48 865l284 107h35v-745q0 -112 30.5 -148t111.5 -42v-37h-461v37q76 2 117.5 31.5t41.5 158.5v453q0 84 -22.5 121t-79.5 37q-24 0 -46 -10z" />
    <glyph glyph-name="afii10104" unicode="&#x457;" horiz-adv-x="555" 
d="M105 1412q43 0 75.5 -31t32.5 -77t-32 -77.5t-76 -31.5t-76 32t-32 77q0 44 32 76t76 32zM457 1410q45 0 76.5 -31t31.5 -77q0 -44 -31.5 -76t-76.5 -32q-44 0 -76 32t-32 76q0 46 32 77t76 31zM48 865l284 107h35v-745q0 -112 31 -148t112 -42v-37h-462v37
q77 2 118.5 31.5t41.5 158.5v453q0 84 -22.5 121t-80.5 37q-22 0 -46 -10z" />
    <glyph glyph-name="afii10105" unicode="&#x458;" horiz-adv-x="555" 
d="M301 1475q43 0 74.5 -31t31.5 -75t-31.5 -75t-74.5 -31t-74.5 31t-31.5 75t31.5 75t74.5 31zM60 868l298 104h35v-924q0 -241 -90.5 -361.5t-271.5 -120.5q-73 0 -126.5 28t-53.5 75q0 34 26 59.5t60 25.5q50 0 104 -49q62 -57 91 -57q59 0 77 56t18 252v721
q0 166 -94 166q-25 0 -62 -11z" />
    <glyph glyph-name="afii1016" unicode="&#x459;" horiz-adv-x="1567" 
d="M1085 950v-37q-72 0 -113 -29.5t-41 -147.5v-197h143q213 0 317 -62t104 -194q0 -89 -62 -161t-144 -97t-245 -25h-437v37q93 0 126 35t33 117v695h-347v-513q0 -193 -63 -289.5t-189 -96.5q-80 0 -119.5 36t-39.5 77q0 32 23 55.5t58 23.5q42 0 89 -42q42 -36 73 -36
q50 0 76 60.5t26 235.5v364q0 86 -35 120t-116 34v37h883zM931 83q66 -18 134 -18q96 0 166.5 57t70.5 154q0 107 -67.5 152.5t-206.5 45.5h-97v-391z" />
    <glyph glyph-name="afii10107" unicode="&#x45a;" horiz-adv-x="1579" 
d="M369 539h409v224q0 81 -34 115.5t-126 34.5v37h479v-37q-87 0 -120.5 -39t-33.5 -138v-197h143q213 0 317 -62t104 -194q0 -106 -95 -194.5t-332 -88.5h-462v37q95 0 127.5 35.5t32.5 116.5v285h-409v-295q0 -78 34.5 -110t120.5 -32v-37h-474v37q82 0 118.5 32.5
t36.5 109.5v571q0 88 -33.5 124.5t-121.5 38.5v37h474v-37q-77 0 -116 -29.5t-39 -133.5v-211zM943 83q73 -17 129 -17q104 0 173 57t69 153q0 106 -67.5 152t-206.5 46h-97v-391z" />
    <glyph glyph-name="afii10108" unicode="&#x45b;" horiz-adv-x="1118" 
d="M199 1191q-2 131 -89 131q-26 0 -57 -11l-11 35l284 123h38v-278h449v-62h-449v-356q68 93 157.5 146t165.5 53q83 0 144 -51.5t79 -128.5t18 -216v-350q0 -118 34 -153.5t119 -35.5v-37h-468v37q104 1 127.5 46t23.5 143v392q0 86 -10 126t-52 72.5t-97 32.5
t-115.5 -31.5t-125.5 -95.5v-496q0 -120 34.5 -154.5t127.5 -34.5v-37h-473v37q82 1 114 38t32 151v903h-146v62h146z" />
    <glyph glyph-name="afii10109" unicode="&#x45c;" horiz-adv-x="1075" 
d="M468 1125l106 344h227l-298 -344h-35zM56 950h469v-37q-83 0 -116 -38.5t-33 -127.5v-211q27 -1 40 -1q155 0 216 194q74 232 228 232q62 0 94.5 -30.5t32.5 -65.5q0 -33 -25 -59.5t-69 -26.5q-20 0 -47 10q-43 16 -67 16q-35 0 -54.5 -21t-38.5 -89q-36 -122 -106 -170
q74 -23 160 -174q5 -9 11 -18l106 -169q54 -85 92 -105.5t80 -21.5v-37h-265l-253 406q-45 73 -92 73q-15 0 -43 -5v-287q0 -149 149 -150v-37h-469v37q87 3 121 36.5t34 113.5v560q0 100 -36.5 133t-118.5 33v37z" />
    <glyph glyph-name="afii10110" unicode="&#x45e;" 
d="M218 1318q0 74 72 74q64 0 115 -117q44 -104 141 -104q63 0 95 28q31 27 59 94q40 99 102 99q73 0 73 -79t-96.5 -142t-218.5 -63q-153 0 -247.5 58t-94.5 152zM34 950h424v-37q-61 -2 -86 -18.5t-25 -54.5q0 -41 19 -84l232 -518l159 433q59 158 59 181q0 55 -95 61v37
h271v-37q-46 -7 -70 -43.5t-86 -198.5l-258 -699q-88 -239 -174.5 -322.5t-192.5 -83.5q-60 0 -98.5 31t-38.5 80q0 42 30 68.5t77 26.5q30 0 94 -27q28 -11 47 -11q89 0 166 204l31 83l-329 735q-69 152 -156 157v37z" />
    <glyph glyph-name="afii10193" unicode="&#x45f;" horiz-adv-x="1131" 
d="M584 -254h-37q-18 254 -243 254h-246v37q83 2 114 39.5t31 134.5v528q0 99 -32 135.5t-113 38.5v37h454v-37q-82 -2 -113 -39.5t-31 -134.5v-589q0 -66 21.5 -75t85.5 -9h202q59 0 72.5 15t13.5 75v583q0 99 -32 136t-113 38v37h454v-37q-83 -2 -113.5 -39.5
t-30.5 -134.5v-538q0 -97 31 -130.5t113 -33.5v-37h-246q-224 0 -242 -254z" />
    <glyph glyph-name="afii10050" unicode="&#x490;" horiz-adv-x="1067" 
d="M65 1406h561q127 0 182.5 15.5t96 65t55.5 142.5h38v-310h-509v-1104q0 -96 43 -136t162 -42v-37h-629v37q100 0 132.5 22.5t50.5 45t18 110.5v983q0 95 -43 132t-158 39v37z" />
    <glyph glyph-name="afii10098" unicode="&#x491;" horiz-adv-x="768" 
d="M722 1153v-269h-342v-683q0 -99 33.5 -131.5t123.5 -32.5v-37h-484v37q92 0 126 39.5t34 146.5v548q0 85 -28.5 113.5t-131.5 28.5v37h379q122 0 180 43.5t73 159.5h37z" />
    <glyph glyph-name="endash" unicode="&#x2013;" 
d="M-7 508h1039v-65h-1039v65z" />
    <glyph glyph-name="emdash" unicode="&#x2014;" horiz-adv-x="2048" 
d="M-7 508h2063v-65h-2063v65z" />
    <glyph glyph-name="quoteleft" unicode="&#x2018;" horiz-adv-x="555" 
d="M425 1432q-224 -88 -224 -263q0 -21 8 -31.5t23 -10.5q8 0 28 9q33 16 56 16q45 0 77 -32t32 -75q0 -50 -38.5 -84.5t-91.5 -34.5q-77 0 -122 60.5t-45 145.5q0 232 297 337v-37z" />
    <glyph glyph-name="quoteright" unicode="&#x2019;" horiz-adv-x="555" 
d="M128 930q224 87 224 263q0 21 -7.5 31t-23.5 10q-7 0 -27 -9q-34 -15 -57 -15q-44 0 -76 32t-32 76q0 50 37.5 85t91.5 35q77 0 122 -61t45 -147q0 -235 -297 -340v40z" />
    <glyph glyph-name="quotesinglbase" unicode="&#x201a;" horiz-adv-x="682" 
d="M241 -316v42q76 42 120 87.5t44 124.5q0 55 -33 55q-11 0 -31 -7q-24 -9 -46 -9q-38 0 -70 28.5t-32 74.5q0 53 42 86.5t90 33.5q67 0 120 -57.5t53 -143.5q0 -102 -68 -192.5t-189 -122.5z" />
    <glyph glyph-name="quotedblleft" unicode="&#x201c;" 
d="M425 1433q-224 -88 -224 -264q0 -20 8 -30.5t23 -10.5q8 0 28 9q33 15 56 15q44 0 76.5 -31.5t32.5 -75.5q0 -50 -38.5 -84.5t-91.5 -34.5q-77 0 -122 60.5t-45 145.5q0 235 297 337v-36zM893 1433q-224 -87 -224 -264q0 -20 8 -30.5t23 -10.5q7 0 27 9q34 15 57 15
q44 0 76 -32t32 -75q0 -50 -37.5 -84.5t-91.5 -34.5q-77 0 -122.5 60.5t-45.5 145.5q0 235 298 337v-36z" />
    <glyph glyph-name="quotedblright" unicode="&#x201d;" 
d="M601 930q224 87 224 263q0 21 -7.5 31t-23.5 10q-8 0 -28 -9q-33 -15 -56 -15q-44 0 -76.5 32t-32.5 76q0 50 38 85t92 35q71 0 119 -58t48 -150q0 -235 -297 -340v40zM124 930q224 87 224 263q0 21 -7.5 31t-23.5 10q-7 0 -27 -9q-34 -15 -57 -15q-44 0 -76 32t-32 76
q0 50 37.5 85t91.5 35q77 0 122 -61t45 -147q0 -235 -297 -340v40z" />
    <glyph glyph-name="quotedblbase" unicode="&#x201e;" 
d="M587 -303q224 88 224 262q0 21 -7.5 31t-23.5 10q-8 0 -27 -10q-33 -18 -56 -18q-45 0 -77 32.5t-32 77.5q0 51 38 86.5t92 35.5q75 0 120.5 -61t45.5 -146q0 -236 -297 -339v39zM138 -303q224 88 224 262q0 21 -7.5 31t-23.5 10q-8 0 -27 -10q-33 -18 -56 -18
q-45 0 -77 32.5t-32 77.5q0 51 38 86.5t92 35.5q76 0 121 -61t45 -146q0 -236 -297 -339v39z" />
    <glyph glyph-name="dagger" unicode="&#x2020;" 
d="M491 972q0 52 -44 168q-46 124 -46 185q0 50 34 89t75 39q45 0 78 -41.5t33 -91.5q0 -60 -51 -184l-32 -81q-10 -25 -10 -83q72 2 183 49q70 30 120 30q36 0 65.5 -29.5t29.5 -70.5q0 -43 -31 -71t-67 -28q-52 0 -119 28q-115 47 -181 52q4 -154 99 -240
q-99 -356 -99 -1110h-37q-5 780 -103 1110q103 83 103 240q-55 -4 -189 -56q-58 -22 -106 -22q-39 0 -68 28.5t-29 70.5q0 41 29.5 69.5t68.5 28.5q45 0 101 -23q134 -55 193 -56z" />
    <glyph glyph-name="doubledagger" unicode="&#x2021;" 
d="M494 1057q-1 46 -8 72.5t-49 129.5q-24 61 -24 114q0 40 30 72t71 32q44 0 71.5 -34t27.5 -75q0 -51 -43 -157q-36 -90 -38 -154h9q41 0 157 47q56 23 102 23q35 0 61 -26.5t26 -63.5q0 -40 -25.5 -64t-59.5 -24q-49 0 -106 24q-105 46 -164 46q5 -112 96 -177
q-96 -109 -96 -334q0 -201 96 -314q-84 -59 -96 -173q48 0 172 49q52 21 95 21q32 0 60 -26.5t28 -65.5q0 -38 -28 -63.5t-60 -25.5q-41 0 -95 23q-114 49 -172 49q1 -70 52 -186q32 -73 32 -130q0 -35 -29 -67.5t-72 -32.5q-42 0 -73 33t-31 74q0 51 29 120q54 124 54 189
q-55 0 -135 -33q-95 -39 -132 -39q-32 0 -60.5 26t-28.5 65t28.5 64.5t68.5 25.5q39 0 114 -33q81 -36 145 -37q-12 115 -95 173q95 127 95 335q0 211 -95 313q89 67 95 177q-55 0 -145 -38q-77 -32 -115 -32q-41 0 -68.5 26t-27.5 65q0 37 26 62t64 25q42 0 126 -34
q91 -38 140 -36z" />
    <glyph glyph-name="bullet" unicode="&#x2022;" horiz-adv-x="725" 
d="M109 703q0 101 72.5 177.5t180.5 76.5q106 0 180 -74.5t74 -179.5t-74.5 -179.5t-179.5 -74.5q-108 0 -180.5 76t-72.5 178z" />
    <glyph glyph-name="ellipsis" unicode="&#x2026;" horiz-adv-x="2048" 
d="M1707 202q46 0 80 -33t34 -82q0 -47 -33.5 -81t-80.5 -34t-81 34t-34 81q0 48 34 81.5t81 33.5zM342 202q46 0 80 -33t34 -82q0 -47 -33.5 -81t-80.5 -34t-80.5 34t-33.5 81q0 49 34 82t80 33zM1024 202q46 0 79.5 -33t33.5 -82q0 -47 -33 -81t-80 -34q-48 0 -81 33.5
t-33 81.5q0 49 33.5 82t80.5 33z" />
    <glyph glyph-name="perthousand" unicode="&#x2030;" horiz-adv-x="2048" 
d="M1114 1436h88l-979 -1493h-88zM19 1071q0 155 78 256.5t187 101.5q111 0 190 -100.5t79 -260.5q0 -164 -79 -265t-184 -101q-115 0 -193 103.5t-78 265.5zM138 1069q0 -334 150 -334q147 0 147 324q0 341 -151 341q-146 0 -146 -331zM810 357q0 165 82 261t184 96
q101 0 184.5 -94.5t83.5 -265.5q0 -177 -84 -271.5t-179 -94.5q-116 0 -193.5 104t-77.5 265zM929 356q0 -335 150 -335q147 0 147 324q0 340 -150 340q-147 0 -147 -329zM1496 357q0 165 81.5 261t183.5 96q112 0 190.5 -101t78.5 -259q0 -177 -84 -271.5t-180 -94.5
q-102 0 -186 95.5t-84 273.5zM1614 356q0 -335 150 -335q147 0 147 324q0 340 -150 340q-147 0 -147 -329z" />
    <glyph glyph-name="guilsinglleft" unicode="&#x2039;" horiz-adv-x="555" 
d="M450 992h58l-246 -474l246 -481h-58l-397 481z" />
    <glyph glyph-name="guillsinglright" unicode="&#x203a;" horiz-adv-x="555" 
d="M106 37h-59l246 479l-246 476h59l396 -476z" />
    <glyph glyph-name="afii61352" unicode="&#x2116;" horiz-adv-x="2048" 
d="M533 1406l600 -948v615q0 137 23 201t86 106t144 42q77 0 122.5 -36.5t45.5 -89.5q0 -39 -31 -71t-84 -32q-41 0 -83 25q-43 27 -71 27q-42 0 -53 -26.5t-11 -150.5v-1099h-40l-740 1169v-828q0 -170 -65 -255.5t-196 -85.5q-76 0 -119.5 39t-43.5 86q0 44 30.5 73.5
t80.5 29.5q51 0 107 -31q35 -19 53 -19q42 0 53.5 38.5t11.5 186.5v805q0 127 -46.5 159.5t-144.5 32.5v37h371zM1335 656q0 139 87.5 243.5t238.5 104.5q137 0 242.5 -91.5t105.5 -244.5q0 -150 -93.5 -250t-230.5 -100q-140 0 -245 96t-105 242zM1487 740
q0 -162 68.5 -266.5t153.5 -104.5q65 0 110.5 50t45.5 135q0 137 -55.5 267t-160.5 130q-70 0 -116 -54t-46 -157zM1402 126h521v-126h-521v126z" />
    <glyph glyph-name="trademark" unicode="&#x2122;" horiz-adv-x="2005" 
d="M50 1406h728l22 -201h-34q-5 50 -41.5 95.5t-152.5 45.5h-75v-580q0 -83 20 -105.5t86 -25.5v-36h-374v36q55 4 77.5 20t22.5 111v580h-76q-90 0 -133 -29.5t-57 -111.5h-34zM1155 1406l273 -572l265 572h279v-37q-71 -2 -91 -25.5t-20 -108.5v-469q0 -85 19 -106t92 -25
v-36h-398v36q74 2 96.5 26t22.5 105v492l-307 -659h-32l-308 649v-482q0 -77 17.5 -104t75.5 -27h36v-36h-306v36q70 0 91.5 23.5t21.5 107.5v466q0 89 -19.5 113t-93.5 24v37h286z" />
  </font>
</defs>
</svg>
